Поиск

2018 Kamasi Washington - Heaven and Earth {Young Turks YT176CD}

2018 Kamasi Washington - Heaven and Earth {Young Turks YT176CD}
Издатель (лейбл):

Треклист:

Носитель: CD
Год издания: 2018
Номер по каталогу: YT176CD
Страна исполнителя (группы): US
Аудиокодек: FLAC (*.flac)
Тип рипа: tracks+.cue
Битрейт аудио: lossless
Продолжительность: 03:03:20
Источник (релизер): Apollo
Наличие сканов в содержимом раздачи: да

Треклист:
Disc 1. Earth
01. Fists of Fury (09:43)
02. Can You Hear Him (08:54)
03. Hub-Tones (09:10)
04. Connections (08:24)
05. Tiffakonkae (09:24)
06. The Invincible Youth (09:53)
07. Testify (05:44)
08. One of One (09:50)
Disc 2. Heaven
01. The Space Travelers Lullaby (10:31)
02. Vi Lua Vi Sol (11:07)
03. Street Fighter Mas (05:58)
04. Song for the Fallen (12:41)
05. Journey (08:51)
06. The Psalmnist (07:18)
07. Show Us the Way (06:51)
08. Will You Sing (10:13
Disc 3. The Choice
01. The Secret of Jinsinson (8:07)
02. Will You Love Me Tomorrow (9:40)
03. My Family (6:34)
04. Agents of Multiverse (5:22)
05. Ooh Child (8:53)

 
Логи создания дисков
 
CD 01
X Lossless Decoder version 20170729 (150.3)
XLD extraction logfile from 2018-06-21 20:29:15 +0200
Kamasi Washington / Heaven And Earth
Used drive : HL-DT-ST DVDRAM GP90EB70 (revision RC00)
Media type : Pressed CD
Ripper mode             : XLD Secure Ripper
Disable audio cache     : OK for the drive with a cache less than 1375KiB
Make use of C2 pointers : NO
Read offset correction  : 6
Max retry count         : 100
Gap status              : Analyzed, Appended (except HTOA)
TOC of the extracted CD
     Track |   Start  |  Length  | Start sector | End sector
    ---------------------------------------------------------
        1  | 00:00:00 | 09:43:13 |         0    |    43737
        2  | 09:43:13 | 08:54:56 |     43738    |    83843
        3  | 18:37:69 | 09:10:35 |     83844    |   125128
        4  | 27:48:29 | 08:24:37 |    125129    |   162965
        5  | 36:12:66 | 09:24:65 |    162966    |   205330
        6  | 45:37:56 | 09:53:41 |    205331    |   249846
        7  | 55:31:22 | 05:44:36 |    249847    |   275682
        8  | 61:15:58 | 09:50:55 |    275683    |   319987
AccurateRip Summary
    Disc not found in AccurateRip DB.
All Tracks
    Album gain               : -7.65 dB
    Peak                     : 0.990753
    Statistics
        Read error                           : 0
        Jitter error (maybe fixed)           : 0
        Retry sector count                   : 0
        Damaged sector count                 : 0
Track 01
    Filename : /Volumes/LaCieD2 1 DL/Kamasi Washington -2018- Heaven and Earth (FLAC)/CD1/01 - Fists Of Fury.flac
    Pre-gap length : 00:02:00
    Track gain               : -7.92 dB
    Peak                     : 0.975555
    CRC32 hash (test run)    : 8777F941
    CRC32 hash               : 8777F941
    CRC32 hash (skip zero)   : 695C9080
    AccurateRip v1 signature : 28E3664D
    AccurateRip v2 signature : 5731AEEC
        ->Track not present in AccurateRip database.
    Statistics
        Read error                           : 0
        Jitter error (maybe fixed)           : 0
        Retry sector count                   : 0
        Damaged sector count                 : 0
Track 02
    Filename : /Volumes/LaCieD2 1 DL/Kamasi Washington -2018- Heaven and Earth (FLAC)/CD1/02 - Can You Hear Him.flac
    Track gain               : -8.75 dB
    Peak                     : 0.990753
    CRC32 hash (test run)    : 91B7A7CA
    CRC32 hash               : 91B7A7CA
    CRC32 hash (skip zero)   : BA92772D
    AccurateRip v1 signature : 7FED6705
    AccurateRip v2 signature : 8E2B908A
        ->Track not present in AccurateRip database.
    Statistics
        Read error                           : 0
        Jitter error (maybe fixed)           : 0
        Retry sector count                   : 0
        Damaged sector count                 : 0
Track 03
    Filename : /Volumes/LaCieD2 1 DL/Kamasi Washington -2018- Heaven and Earth (FLAC)/CD1/03 - Hub-Tones.flac
    Track gain               : -7.41 dB
    Peak                     : 0.968048
    CRC32 hash (test run)    : DB79C9AF
    CRC32 hash               : DB79C9AF
    CRC32 hash (skip zero)   : 608E6E3F
    AccurateRip v1 signature : F2623ABB
    AccurateRip v2 signature : 19A2E1A3
        ->Track not present in AccurateRip database.
    Statistics
        Read error                           : 0
        Jitter error (maybe fixed)           : 0
        Retry sector count                   : 0
        Damaged sector count                 : 0
Track 04
    Filename : /Volumes/LaCieD2 1 DL/Kamasi Washington -2018- Heaven and Earth (FLAC)/CD1/04 - Connections.flac
    Track gain               : -7.79 dB
    Peak                     : 0.980225
    CRC32 hash (test run)    : 460281A4
    CRC32 hash               : 460281A4
    CRC32 hash (skip zero)   : 94702930
    AccurateRip v1 signature : 5A76D3F4
    AccurateRip v2 signature : 2F96C8FA
        ->Track not present in AccurateRip database.
    Statistics
        Read error                           : 0
        Jitter error (maybe fixed)           : 0
        Retry sector count                   : 0
        Damaged sector count                 : 0
Track 05
    Filename : /Volumes/LaCieD2 1 DL/Kamasi Washington -2018- Heaven and Earth (FLAC)/CD1/05 - Tiffakonkae.flac
    Track gain               : -5.57 dB
    Peak                     : 0.966461
    CRC32 hash (test run)    : 1EAB3311
    CRC32 hash               : 1EAB3311
    CRC32 hash (skip zero)   : 8EA625AE
    AccurateRip v1 signature : 4789A91F
    AccurateRip v2 signature : 38BD9118
        ->Track not present in AccurateRip database.
    Statistics
        Read error                           : 0
        Jitter error (maybe fixed)           : 0
        Retry sector count                   : 0
        Damaged sector count                 : 0
Track 06
    Filename : /Volumes/LaCieD2 1 DL/Kamasi Washington -2018- Heaven and Earth (FLAC)/CD1/06 - The Invincible Youth.flac
    Track gain               : -7.21 dB
    Peak                     : 0.966766
    CRC32 hash (test run)    : 9941F5EB
    CRC32 hash               : 9941F5EB
    CRC32 hash (skip zero)   : 4D526521
    AccurateRip v1 signature : D92118D2
    AccurateRip v2 signature : 21333F48
        ->Track not present in AccurateRip database.
    Statistics
        Read error                           : 0
        Jitter error (maybe fixed)           : 0
        Retry sector count                   : 0
        Damaged sector count                 : 0
Track 07
    Filename : /Volumes/LaCieD2 1 DL/Kamasi Washington -2018- Heaven and Earth (FLAC)/CD1/07 - Testify.flac
    Track gain               : -6.82 dB
    Peak                     : 0.970367
    CRC32 hash (test run)    : 0AD3C9E7
    CRC32 hash               : 0AD3C9E7
    CRC32 hash (skip zero)   : B19868C0
    AccurateRip v1 signature : B1E683FD
    AccurateRip v2 signature : 8C004BFB
        ->Track not present in AccurateRip database.
    Statistics
        Read error                           : 0
        Jitter error (maybe fixed)           : 0
        Retry sector count                   : 0
        Damaged sector count                 : 0
Track 08
    Filename : /Volumes/LaCieD2 1 DL/Kamasi Washington -2018- Heaven and Earth (FLAC)/CD1/08 - One Of One.flac
    Track gain               : -7.66 dB
    Peak                     : 0.970764
    CRC32 hash (test run)    : 860E52BD
    CRC32 hash               : 860E52BD
    CRC32 hash (skip zero)   : D81857E9
    AccurateRip v1 signature : C237259A
    AccurateRip v2 signature : 488417ED
        ->Track not present in AccurateRip database.
    Statistics
        Read error                           : 0
        Jitter error (maybe fixed)           : 0
        Retry sector count                   : 0
        Damaged sector count                 : 0
No errors occurred
End of status report
-----BEGIN XLD SIGNATURE-----
l_EVGEyMSUBA6UdbvmYcNwcSP63_LSoXHze_Bi4SU5II7nKSpIrZSOlIPPzNGR2TkhHd9H2FdaYLFhCQlQlL5LsU5DTIp7sG63ovl60
-----END XLD SIGNATURE-----
 
CD 02
X Lossless Decoder version 20170729 (150.3)
XLD extraction logfile from 2018-06-21 17:43:50 +0200
Kamasi Washington / Heaven and Earth
Used drive : HL-DT-ST DVDRAM GP90EB70 (revision RC00)
Media type : Pressed CD
Ripper mode             : XLD Secure Ripper
Disable audio cache     : OK for the drive with a cache less than 1375KiB
Make use of C2 pointers : NO
Read offset correction  : 6
Max retry count         : 100
Gap status              : Analyzed, Appended (except HTOA)
TOC of the extracted CD
     Track |   Start  |  Length  | Start sector | End sector
    ---------------------------------------------------------
        1  | 00:00:00 | 10:31:49 |         0    |    47373
        2  | 10:31:49 | 11:07:24 |     47374    |    97422
        3  | 21:38:73 | 05:58:12 |     97423    |   124284
        4  | 27:37:10 | 12:41:45 |    124285    |   181404
        5  | 40:18:55 | 08:51:08 |    181405    |   221237
        6  | 49:09:63 | 07:18:68 |    221238    |   254155
        7  | 56:28:56 | 06:51:47 |    254156    |   285027
        8  | 63:20:28 | 10:13:02 |    285028    |   331004
AccurateRip Summary
    Disc not found in AccurateRip DB.
All Tracks
    Album gain               : -7.62 dB
    Peak                     : 0.977966
    Statistics
        Read error                           : 0
        Jitter error (maybe fixed)           : 0
        Retry sector count                   : 0
        Damaged sector count                 : 0
Track 01
    Filename : /Volumes/LaCieD2 1 DL/Kamasi Washington -2018- Heaven and Earth (FLAC)/CD2/01 - The Space Travelers Lullaby.flac
    Pre-gap length : 00:02:00
    Track gain               : -7.74 dB
    Peak                     : 0.969757
    CRC32 hash (test run)    : B737073C
    CRC32 hash               : B737073C
    CRC32 hash (skip zero)   : 412DACFE
    AccurateRip v1 signature : 6AF5ACDC
    AccurateRip v2 signature : D3A80B40
        ->Track not present in AccurateRip database.
    Statistics
        Read error                           : 0
        Jitter error (maybe fixed)           : 0
        Retry sector count                   : 0
        Damaged sector count                 : 0
Track 02
    Filename : /Volumes/LaCieD2 1 DL/Kamasi Washington -2018- Heaven and Earth (FLAC)/CD2/02 - Vi Lua Vi Sol.flac
    Track gain               : -7.42 dB
    Peak                     : 0.973267
    CRC32 hash (test run)    : C5C2A3FF
    CRC32 hash               : C5C2A3FF
    CRC32 hash (skip zero)   : 34DBE0A5
    AccurateRip v1 signature : 01A5CB7A
    AccurateRip v2 signature : 0710C805
        ->Track not present in AccurateRip database.
    Statistics
        Read error                           : 0
        Jitter error (maybe fixed)           : 0
        Retry sector count                   : 0
        Damaged sector count                 : 0
Track 03
    Filename : /Volumes/LaCieD2 1 DL/Kamasi Washington -2018- Heaven and Earth (FLAC)/CD2/03 - Street Fighter Mas.flac
    Track gain               : -9.03 dB
    Peak                     : 0.970917
    CRC32 hash (test run)    : 0FCF8548
    CRC32 hash               : 0FCF8548
    CRC32 hash (skip zero)   : 4022CFC1
    AccurateRip v1 signature : FF7A4224
    AccurateRip v2 signature : 5F0FB327
        ->Track not present in AccurateRip database.
    Statistics
        Read error                           : 0
        Jitter error (maybe fixed)           : 0
        Retry sector count                   : 0
        Damaged sector count                 : 0
Track 04
    Filename : /Volumes/LaCieD2 1 DL/Kamasi Washington -2018- Heaven and Earth (FLAC)/CD2/04 - Song For The Fallen.flac
    Track gain               : -6.80 dB
    Peak                     : 0.967010
    CRC32 hash (test run)    : 99C6AADD
    CRC32 hash               : 99C6AADD
    CRC32 hash (skip zero)   : 58D5A7B7
    AccurateRip v1 signature : 5C7D3DAE
    AccurateRip v2 signature : 85CC363B
        ->Track not present in AccurateRip database.
    Statistics
        Read error                           : 0
        Jitter error (maybe fixed)           : 0
        Retry sector count                   : 0
        Damaged sector count                 : 0
Track 05
    Filename : /Volumes/LaCieD2 1 DL/Kamasi Washington -2018- Heaven and Earth (FLAC)/CD2/05 - Journey.flac
    Track gain               : -5.18 dB
    Peak                     : 0.966370
    CRC32 hash (test run)    : EE17130F
    CRC32 hash               : EE17130F
    CRC32 hash (skip zero)   : 1858AD13
    AccurateRip v1 signature : 743D6E26
    AccurateRip v2 signature : 74BF8A81
        ->Track not present in AccurateRip database.
    Statistics
        Read error                           : 0
        Jitter error (maybe fixed)           : 0
        Retry sector count                   : 0
        Damaged sector count                 : 0
Track 06
    Filename : /Volumes/LaCieD2 1 DL/Kamasi Washington -2018- Heaven and Earth (FLAC)/CD2/06 - The Psalmnist.flac
    Track gain               : -8.01 dB
    Peak                     : 0.969269
    CRC32 hash (test run)    : 9BAC65ED
    CRC32 hash               : 9BAC65ED
    CRC32 hash (skip zero)   : 0139552C
    AccurateRip v1 signature : B9F20D72
    AccurateRip v2 signature : C60F95C7
        ->Track not present in AccurateRip database.
    Statistics
        Read error                           : 0
        Jitter error (maybe fixed)           : 0
        Retry sector count                   : 0
        Damaged sector count                 : 0
Track 07
    Filename : /Volumes/LaCieD2 1 DL/Kamasi Washington -2018- Heaven and Earth (FLAC)/CD2/07 - Show Us The Way.flac
    Track gain               : -6.86 dB
    Peak                     : 0.966187
    CRC32 hash (test run)    : 360AEEFA
    CRC32 hash               : 360AEEFA
    CRC32 hash (skip zero)   : 7205AB89
    AccurateRip v1 signature : A2B0D1C4
    AccurateRip v2 signature : 07E45E3C
        ->Track not present in AccurateRip database.
    Statistics
        Read error                           : 0
        Jitter error (maybe fixed)           : 0
        Retry sector count                   : 0
        Damaged sector count                 : 0
Track 08
    Filename : /Volumes/LaCieD2 1 DL/Kamasi Washington -2018- Heaven and Earth (FLAC)/CD2/08 - Will You Sing.flac
    Track gain               : -7.92 dB
    Peak                     : 0.977966
    CRC32 hash (test run)    : 08B6A883
    CRC32 hash               : 08B6A883
    CRC32 hash (skip zero)   : 8532A1F9
    AccurateRip v1 signature : DFD3CC40
    AccurateRip v2 signature : AECDF862
        ->Track not present in AccurateRip database.
    Statistics
        Read error                           : 0
        Jitter error (maybe fixed)           : 0
        Retry sector count                   : 0
        Damaged sector count                 : 0
No errors occurred
End of status report
-----BEGIN XLD SIGNATURE-----
HtJJSh2pmdWlzhuf__k4xqCH0XllHtkGP3WTyU0I2QoZ38tf5UQ8fMEEE2jhLu7C1wd9WgcchhBXa58e1PWIyKrmT1zq_nop26bWdbi
-----END XLD SIGNATURE-----
 
CD 03
X Lossless Decoder version 20170729 (150.3)
XLD extraction logfile from 2018-06-21 19:58:41 +0200
Kamasi Washington / Heaven and Earth
Used drive : HL-DT-ST DVDRAM GP90EB70 (revision RC00)
Media type : Pressed CD
Ripper mode             : XLD Secure Ripper
Disable audio cache     : OK for the drive with a cache less than 1375KiB
Make use of C2 pointers : NO
Read offset correction  : 6
Max retry count         : 100
Gap status              : Analyzed, Appended (except HTOA)
TOC of the extracted CD
     Track |   Start  |  Length  | Start sector | End sector
    ---------------------------------------------------------
        1  | 00:00:00 | 08:07:64 |         0    |    36588
        2  | 08:07:64 | 09:40:66 |     36589    |    80154
        3  | 17:48:55 | 06:35:31 |     80155    |   109810
        4  | 24:24:11 | 05:22:51 |    109811    |   134011
        5  | 29:46:62 | 08:53:55 |    134012    |   174041
AccurateRip Summary
    Disc not found in AccurateRip DB.
All Tracks
    Album gain               : -7.22 dB
    Peak                     : 0.974335
    Statistics
        Read error                           : 0
        Jitter error (maybe fixed)           : 0
        Retry sector count                   : 0
        Damaged sector count                 : 0
Track 01
    Filename : /Volumes/LaCieD2 1 DL/Kamasi Washington -2018- Heaven and Earth (FLAC)/CD3/01 - The Secrete of Jinsinson.flac
    Pre-gap length : 00:02:00
    Track gain               : -7.21 dB
    Peak                     : 0.967865
    CRC32 hash (test run)    : 2F9A4559
    CRC32 hash               : 2F9A4559
    CRC32 hash (skip zero)   : E48E1BF7
    AccurateRip v1 signature : E2731937
    AccurateRip v2 signature : 24751C91
        ->Track not present in AccurateRip database.
    Statistics
        Read error                           : 0
        Jitter error (maybe fixed)           : 0
        Retry sector count                   : 0
        Damaged sector count                 : 0
Track 02
    Filename : /Volumes/LaCieD2 1 DL/Kamasi Washington -2018- Heaven and Earth (FLAC)/CD3/02 - Will You Love Me Tomorrow.flac
    Track gain               : -6.83 dB
    Peak                     : 0.966736
    CRC32 hash (test run)    : 74D4B8C3
    CRC32 hash               : 74D4B8C3
    CRC32 hash (skip zero)   : 0036220F
    AccurateRip v1 signature : 8408ABED
    AccurateRip v2 signature : F11B1A4E
        ->Track not present in AccurateRip database.
    Statistics
        Read error                           : 0
        Jitter error (maybe fixed)           : 0
        Retry sector count                   : 0
        Damaged sector count                 : 0
Track 03
    Filename : /Volumes/LaCieD2 1 DL/Kamasi Washington -2018- Heaven and Earth (FLAC)/CD3/03 - My Family.flac
    Track gain               : -5.66 dB
    Peak                     : 0.966675
    CRC32 hash (test run)    : EB4AC626
    CRC32 hash               : EB4AC626
    CRC32 hash (skip zero)   : D157D389
    AccurateRip v1 signature : 4808F166
    AccurateRip v2 signature : 876D4C6D
        ->Track not present in AccurateRip database.
    Statistics
        Read error                           : 0
        Jitter error (maybe fixed)           : 0
        Retry sector count                   : 0
        Damaged sector count                 : 0
Track 04
    Filename : /Volumes/LaCieD2 1 DL/Kamasi Washington -2018- Heaven and Earth (FLAC)/CD3/04 - Agents of The Multiverse.flac
    Track gain               : -6.09 dB
    Peak                     : 0.971344
    CRC32 hash (test run)    : 95823391
    CRC32 hash               : 95823391
    CRC32 hash (skip zero)   : 4CA122B8
    AccurateRip v1 signature : EF36C697
    AccurateRip v2 signature : C7FE80FE
        ->Track not present in AccurateRip database.
    Statistics
        Read error                           : 0
        Jitter error (maybe fixed)           : 0
        Retry sector count                   : 0
        Damaged sector count                 : 0
Track 05
    Filename : /Volumes/LaCieD2 1 DL/Kamasi Washington -2018- Heaven and Earth (FLAC)/CD3/05 - Ooh Child.flac
    Track gain               : -8.58 dB
    Peak                     : 0.974335
    CRC32 hash (test run)    : 2B08E614
    CRC32 hash               : 2B08E614
    CRC32 hash (skip zero)   : A86F299A
    AccurateRip v1 signature : B59057B8
    AccurateRip v2 signature : 05C9ED1E
        ->Track not present in AccurateRip database.
    Statistics
        Read error                           : 0
        Jitter error (maybe fixed)           : 0
        Retry sector count                   : 0
        Damaged sector count                 : 0
No errors occurred
End of status report
-----BEGIN XLD SIGNATURE-----
XGVHmRtAkjdDrEV0oALtiIKJZH9ZL6No1zQvoDqrHlfVikdKul2kHN2e1qn3LDpklzcASKgw11eGb8CFluj50ECPwmMdwEYep3j8fme
-----END XLD SIGNATURE-----
 
CUE
 
CD 01
TITLE "Heaven And Earth"
PERFORMER "Kamasi Washington"
REM GENRE "Jazz"
REM DATE "2018"
REM DISCNUMBER 1
REM TOTALDISCS 3
REM DISCID 7410AA08
REM REPLAYGAIN_ALBUM_GAIN -7.65 dB
REM REPLAYGAIN_ALBUM_PEAK 0.990753
FILE "01 - Fists Of Fury.flac" WAVE
  TRACK 01 AUDIO
    TITLE "Fists Of Fury"
    PERFORMER "Kamasi Washington"
    ISRC UK7MC1800001
    REM REPLAYGAIN_TRACK_GAIN -7.92 dB
    REM REPLAYGAIN_TRACK_PEAK 0.975555
    INDEX 01 00:00:00
FILE "02 - Can You Hear Him.flac" WAVE
  TRACK 02 AUDIO
    TITLE "Can You Hear Him"
    PERFORMER "Kamasi Washington"
    ISRC UK7MC1800002
    REM REPLAYGAIN_TRACK_GAIN -8.75 dB
    REM REPLAYGAIN_TRACK_PEAK 0.990753
    INDEX 01 00:00:00
FILE "03 - Hub-Tones.flac" WAVE
  TRACK 03 AUDIO
    TITLE "Hub-Tones"
    PERFORMER "Kamasi Washington"
    ISRC UK7MC1800003
    REM REPLAYGAIN_TRACK_GAIN -7.41 dB
    REM REPLAYGAIN_TRACK_PEAK 0.968048
    INDEX 01 00:00:00
FILE "04 - Connections.flac" WAVE
  TRACK 04 AUDIO
    TITLE "Connections"
    PERFORMER "Kamasi Washington"
    ISRC UK7MC1800004
    REM REPLAYGAIN_TRACK_GAIN -7.79 dB
    REM REPLAYGAIN_TRACK_PEAK 0.980225
    INDEX 01 00:00:00
FILE "05 - Tiffakonkae.flac" WAVE
  TRACK 05 AUDIO
    TITLE "Tiffakonkae"
    PERFORMER "Kamasi Washington"
    ISRC UK7MC1800005
    REM REPLAYGAIN_TRACK_GAIN -5.57 dB
    REM REPLAYGAIN_TRACK_PEAK 0.966461
    INDEX 01 00:00:00
FILE "06 - The Invincible Youth.flac" WAVE
  TRACK 06 AUDIO
    TITLE "The Invincible Youth"
    PERFORMER "Kamasi Washington"
    ISRC UK7MC1800006
    REM REPLAYGAIN_TRACK_GAIN -7.21 dB
    REM REPLAYGAIN_TRACK_PEAK 0.966766
    INDEX 01 00:00:00
FILE "07 - Testify.flac" WAVE
  TRACK 07 AUDIO
    TITLE "Testify"
    PERFORMER "Kamasi Washington"
    ISRC UK7MC1800007
    REM REPLAYGAIN_TRACK_GAIN -6.82 dB
    REM REPLAYGAIN_TRACK_PEAK 0.970367
    INDEX 01 00:00:00
FILE "08 - One Of One.flac" WAVE
  TRACK 08 AUDIO
    TITLE "One Of One"
    PERFORMER "Kamasi Washington"
    ISRC UK7MC1800008
    REM REPLAYGAIN_TRACK_GAIN -7.66 dB
    REM REPLAYGAIN_TRACK_PEAK 0.970764
    INDEX 01 00:00:00
 
CD 02
TITLE "Heaven and Earth"
PERFORMER "Kamasi Washington"
REM GENRE "Jazz"
REM DATE "2018"
REM DISCNUMBER 2
REM TOTALDISCS 3
REM DISCID 5C113D08
REM REPLAYGAIN_ALBUM_GAIN -7.62 dB
REM REPLAYGAIN_ALBUM_PEAK 0.977966
FILE "01 - The Space Travelers Lullaby.flac" WAVE
  TRACK 01 AUDIO
    TITLE "The Space Travelers Lullaby"
    PERFORMER "Kamasi Washington"
    ISRC UK7MC1800009
    REM REPLAYGAIN_TRACK_GAIN -7.74 dB
    REM REPLAYGAIN_TRACK_PEAK 0.969757
    INDEX 01 00:00:00
FILE "02 - Vi Lua Vi Sol.flac" WAVE
  TRACK 02 AUDIO
    TITLE "Vi Lua Vi Sol"
    PERFORMER "Kamasi Washington"
    ISRC UK7MC1800010
    REM REPLAYGAIN_TRACK_GAIN -7.42 dB
    REM REPLAYGAIN_TRACK_PEAK 0.973267
    INDEX 01 00:00:00
FILE "03 - Street Fighter Mas.flac" WAVE
  TRACK 03 AUDIO
    TITLE "Street Fighter Mas"
    PERFORMER "Kamasi Washington"
    ISRC UK7MC1800011
    REM REPLAYGAIN_TRACK_GAIN -9.03 dB
    REM REPLAYGAIN_TRACK_PEAK 0.970917
    INDEX 01 00:00:00
FILE "04 - Song For The Fallen.flac" WAVE
  TRACK 04 AUDIO
    TITLE "Song For The Fallen"
    PERFORMER "Kamasi Washington"
    ISRC UK7MC1800012
    REM REPLAYGAIN_TRACK_GAIN -6.80 dB
    REM REPLAYGAIN_TRACK_PEAK 0.967010
    INDEX 01 00:00:00
FILE "05 - Journey.flac" WAVE
  TRACK 05 AUDIO
    TITLE "Journey"
    PERFORMER "Kamasi Washington"
    ISRC UK7MC1800013
    REM REPLAYGAIN_TRACK_GAIN -5.18 dB
    REM REPLAYGAIN_TRACK_PEAK 0.966370
    INDEX 01 00:00:00
FILE "06 - The Psalmnist.flac" WAVE
  TRACK 06 AUDIO
    TITLE "The Psalmnist"
    PERFORMER "Kamasi Washington"
    ISRC UK7MC1800014
    REM REPLAYGAIN_TRACK_GAIN -8.01 dB
    REM REPLAYGAIN_TRACK_PEAK 0.969269
    INDEX 01 00:00:00
FILE "07 - Show Us The Way.flac" WAVE
  TRACK 07 AUDIO
    TITLE "Show Us The Way"
    PERFORMER "Kamasi Washington"
    ISRC UK7MC1800015
    REM REPLAYGAIN_TRACK_GAIN -6.86 dB
    REM REPLAYGAIN_TRACK_PEAK 0.966187
    INDEX 01 00:00:00
FILE "08 - Will You Sing.flac" WAVE
  TRACK 08 AUDIO
    TITLE "Will You Sing"
    PERFORMER "Kamasi Washington"
    ISRC UK7MC1800016
    REM REPLAYGAIN_TRACK_GAIN -7.92 dB
    REM REPLAYGAIN_TRACK_PEAK 0.977966
    INDEX 01 00:00:00
 
CD 03
TITLE "Heaven and Earth"
PERFORMER "Kamasi Washington"
REM GENRE "Jazz"
REM DATE "2018"
REM DISCNUMBER 3
REM TOTALDISCS 3
REM DISCID 48091005
REM REPLAYGAIN_ALBUM_GAIN -7.22 dB
REM REPLAYGAIN_ALBUM_PEAK 0.974335
FILE "01 - The Secrete of Jinsinson.flac" WAVE
  TRACK 01 AUDIO
    TITLE "The Secrete of Jinsinson"
    PERFORMER "Kamasi Washington"
    ISRC UK7MC1800017
    REM REPLAYGAIN_TRACK_GAIN -7.21 dB
    REM REPLAYGAIN_TRACK_PEAK 0.967865
    INDEX 01 00:00:00
FILE "02 - Will You Love Me Tomorrow.flac" WAVE
  TRACK 02 AUDIO
    TITLE "Will You Love Me Tomorrow"
    PERFORMER "Kamasi Washington"
    ISRC UK7MC1800018
    REM REPLAYGAIN_TRACK_GAIN -6.83 dB
    REM REPLAYGAIN_TRACK_PEAK 0.966736
    INDEX 01 00:00:00
FILE "03 - My Family.flac" WAVE
  TRACK 03 AUDIO
    TITLE "My Family"
    PERFORMER "Kamasi Washington"
    ISRC UK7MC1800019
    REM REPLAYGAIN_TRACK_GAIN -5.66 dB
    REM REPLAYGAIN_TRACK_PEAK 0.966675
    INDEX 01 00:00:00
FILE "04 - Agents of The Multiverse.flac" WAVE
  TRACK 04 AUDIO
    TITLE "Agents of The Multiverse"
    PERFORMER "Kamasi Washington"
    ISRC UK7MC1800020
    REM REPLAYGAIN_TRACK_GAIN -6.09 dB
    REM REPLAYGAIN_TRACK_PEAK 0.971344
    INDEX 01 00:00:00
FILE "05 - Ooh Child.flac" WAVE
  TRACK 05 AUDIO
    TITLE "Ooh Child"
    PERFORMER "Kamasi Washington"
    ISRC UK7MC1800021
    REM REPLAYGAIN_TRACK_GAIN -8.58 dB
    REM REPLAYGAIN_TRACK_PEAK 0.974335
    INDEX 01 00:00:00

 

Приватный:
Да (DHT отключён)
Размер:
1.11 Гб (1,191,755,747 байт) » файлов: 36
Участники:
8 раздают, 0 качают (8 участников всего)
Внешние участники:
29 раздают, 10 качают (39 участников всего) [ Обновить ]
Никого нет на раздаче - пишите ЛС M0p94ok
No seeders - write PM to M0p94ok
21:27
494
Нет комментариев. Ваш будет первым!