Поиск

2018 Iiro Rantala - Mozart, Bernstein, Lennon Die Deutsche Kammerphilharmonie Bremen {ACT 9868-2}

2018 Iiro Rantala - Mozart, Bernstein, Lennon Die Deutsche Kammerphilharmonie Bremen {ACT 9868-2}
Стили:
Издатель (лейбл):

Состав:
  • Iiro Rantala - grand piano
  • Florian Donderer — violin & orchestra leader of
  • Bremen German Chamber Philharmonic (2-5, 7, 8)

Год издания: 2018
Издатель (лейбл): ACT Music
Номер по каталогу: ACT 9868-2
Страна исполнителя: Finland
Аудиокодек: FLAC (*.flac)
Тип рипа: tracks
Битрейт аудио: lossless
Продолжительность: 76:01
Источник (релизер): WEB
Наличие сканов: booklet.pdf

Треклист:
1. Pekka Pohjola
2. Freedom
3. Piano Concerto No. 21, C Major, KV 467: I. Allegro Maestoso
4. Piano Concerto No. 21, C Major, KV 467: II. Andante
5. Piano Concerto No. 21, C Major, KV 467: III. Allegro Vivace
6. Candide Overture
7. Karma - Anyone with a Heart
8. Tears for Esbjörn
9. Imagine

 
Лог проверки качества
AUDIOCHECKER v2.0 beta (build 457) - by Dester - opdester@freemail.hu
~~~~~~~~~~~~~~~~~~~~~~~~~~~~~~~~~~
-=== DO NOT EDIT THIS FILE! ===-
Path: ...\Iiro Rantala - Mozart, Bernstein, Lennon (2018) [FLAC]
1 -=- 01 - Pekka Pohjola.flac -=- CDDA (100%)
2 -=- 02 - Freedom.flac -=- CDDA (100%)
3 -=- 03 - Piano Concerto No. 21, C Major, KV 467; I. Allegro Maestoso.flac -=- CDDA (100%)
4 -=- 04 - II. Andante.flac -=- CDDA (99%)
5 -=- 05 - Piano Concerto No. 21, C Major, KV 467; III. Allegro Vivace.flac -=- CDDA (99%)
6 -=- 06 - Candide Overture.flac -=- CDDA (100%)
7 -=- 07 - Karma - Anyone with a Heart.flac -=- CDDA (100%)
8 -=- 08 - Tears for Esbjorn.flac -=- CDDA (100%)
9 -=- 09 - Imagine.flac -=- CDDA (99%)
Summary 99,67% CDDA
177288388
••••••••••
foobar2000 1.3.12 / Замер динамического диапазона (DR) 1.1.1
Дата отчёта:  2018-05-01 16:59:49
--------------------------------------------------------------------------------
Анализ:   Iiro Rantala & The Deutsche Kammerphilharmonie Bremen / Mozart, Bernstein, Lennon (1-6)
          Iiro Rantala / Mozart, Bernstein, Lennon (7-9)
--------------------------------------------------------------------------------
DR         Пики         RMS           Продолжительность трека
--------------------------------------------------------------------------------
DR11      -0.57 дБ   -15.05 дБ      9:27 02-Freedom
DR10      -0.69 дБ   -15.12 дБ     15:26 03-Piano Concerto No. 21, C Major, KV 467: I. Allegro Maestoso
DR12      -1.30 дБ   -17.49 дБ      7:08 04-II. Andante
DR11      -0.55 дБ   -15.16 дБ      8:47 05-Piano Concerto No. 21, C Major, KV 467: III. Allegro Vivace
DR11      -0.63 дБ   -16.14 дБ     10:08 07-Karma - Anyone with a Heart
DR12      -0.68 дБ   -16.92 дБ      5:57 08-Tears for Esbjorn
DR10      -0.66 дБ   -14.78 дБ      7:24 01-Pekka Pohjola
DR10      -0.60 дБ   -14.30 дБ      5:08 06-Candide Overture
DR10       0.00 дБ   -15.38 дБ      6:36 09-Imagine
--------------------------------------------------------------------------------
Количество треков: 9
Реальные значения DR: DR11
Частота:   44100 Гц
Каналов:   2
Разрядность:   16
Битрейт:   620 кбит/с
Кодек:   FLAC
================================================================================

 

Приватный:
Нет (DHT включён)
Размер:
366.36 Мб (384,154,158 байт) » файлов: 13
Участники:
6 раздают, 0 качают (6 участников всего)
Внешние участники:
--- [ Обновить ]
22:24
59
RSS
Нет комментариев. Ваш будет первым!