Поиск

2018 Iiro Rantala - Mozart, Bernstein, Lennon {ACT Music ACT 9868-2} [24-48]

2018 Iiro Rantala - Mozart, Bernstein, Lennon {ACT Music ACT 9868-2} [24-48]
Издатель (лейбл):

Состав:
  • Iiro Rantala - grand piano
  • Florian Donderer — violin & orchestra leader of
  • Bremen German Chamber Philharmonic (2-5, 7, 8)

Формат записи/Источник записи: [TR24][OF]
Год издания: 2018
Номер по каталогу: ACT 9868-2
Страна исполнителя: Finland
Аудиокодек: FLAC (*.flac)
Тип рипа: tracks
Разрядность: 24 bits / 48 kHz
Количество каналов: 2
Продолжительность: 76:01
Источник (релизер): WEB
Наличие сканов: booklet.pdf

Треклист:
1. Pekka Pohjola
2. Freedom
3. Piano Concerto No. 21, C Major, KV 467: I. Allegro Maestoso
4. Piano Concerto No. 21, C Major, KV 467: II. Andante
5. Piano Concerto No. 21, C Major, KV 467: III. Allegro Vivace
6. Candide Overture
7. Karma - Anyone with a Heart
8. Tears for Esbjörn
9. Imagine

 
Лог проверки качества
foobar2000 1.3.12 / Замер динамического диапазона (DR) 1.1.1
Дата отчёта:  2018-05-30 08:30:40
--------------------------------------------------------------------------------
Анализ:   Iiro Rantala & The Deutsche Kammerphilharmonie Bremen / Mozart, Bernstein, Lennon (1-6)
          Iiro Rantala / Mozart, Bernstein, Lennon (7-9)
--------------------------------------------------------------------------------
DR         Пики         RMS           Продолжительность трека
--------------------------------------------------------------------------------
DR11      -0.72 дБ   -15.05 дБ      9:27 02-Freedom
DR10      -0.72 дБ   -15.12 дБ     15:26 03-I. Allegro Maestoso
DR12      -1.30 дБ   -17.49 дБ      7:08 04-II. Andante (Piano Concerto No. 21, C Major, KV 467
DR10      -0.72 дБ   -15.16 дБ      8:47 05-III. Allegro Vivace
DR11      -0.72 дБ   -16.14 дБ     10:08 07-Karma - Anyone with a Heart
DR12      -0.72 дБ   -16.92 дБ      5:57 08-Tears for Esbjorn
DR10      -0.72 дБ   -14.78 дБ      7:24 01-Pekka Pohjola
DR10      -0.72 дБ   -14.30 дБ      5:08 06-Candide Overture
DR10      -0.72 дБ   -15.38 дБ      6:36 09-Imagine
--------------------------------------------------------------------------------
Количество треков: 9
Реальные значения DR: DR11
Частота:   48000 Гц
Каналов:   2
Разрядность:   24
Битрейт:   1355 кбит/с
Кодек:   FLAC
================================================================================

 

Скачивание доступно после регистрации!!
Приватный:
Нет (DHT включён)
Размер:
776.32 Мб (814,026,052 байт) » файлов: 13
Участники:
1 раздают, 0 качают (1 участников всего)
Внешние участники:
--- [ Обновить ]
Скорость:
0/c 60.92 Кб/c
12:49
54
RSS
Нет комментариев. Ваш будет первым!