Поиск

2018 Holly Cole - Holly {2xHD} [1-5,6]

2018 Holly Cole - Holly {2xHD} [1-5,6]
Стили:
Издатель (лейбл):

Формат записи/Источник записи: [DSD][OF]
Наличие водяных знаков: Нет
Год издания/переиздания диска: 2018
Продолжительность: 39:56
Наличие сканов в содержимом раздачи: Буклет PDF
Контейнер: DSF (*.dsf)
Тип рипа: tracks
Разрядность: 128(5,6 MHz/1 Bit)
Формат: DSD
Количество каналов: 2.0
Источник (релизер): Acoustic Sounds

Треклист:
01. I’m Beginning To See The Light
02. Your Mind Is On Vacation
03. The Goldwyn Follies: I Was Doing All Right
04. And The Angels Sing: It Could Happen To You
05. Ain’t That A Kick In The Head?
06. Teach Me Tonight
07. We’ve Got A World That Swings
08. Shall We Dance: They Can’t Take That Away From Me
09. Everybody Loves Somebody
10. Pal Joey: I Could Write A Book
11. Golden Apple: Lazy Afternoon

 
Лог проверки качества
foobar2000 1.3.17 / Dynamic Range Meter 1.1.1
log date: 2018-03-12 11:00:43
--------------------------------------------------------------------------------
Analyzed: Holly Cole / Holly
--------------------------------------------------------------------------------
DR         Peak         RMS     Duration Track
--------------------------------------------------------------------------------
DR14      -8.41 dB   -24.00 dB      3:00 01-I'm Beginning to See the Light
DR14      -7.18 dB   -23.46 dB      3:32 02-Your Mind Is on Vacation
DR14      -6.83 dB   -24.19 dB      2:55 03-The Goldwyn Follies: I Was Doing All Right
DR13     -11.56 dB   -29.32 dB      3:41 04-And the Angels Sing: It Could Happen to You
DR14      -7.04 dB   -24.86 dB      3:13 05-Ain't That a Kick in the Head?
DR13      -8.10 dB   -25.41 dB      4:17 06-Teach Me Tonight
DR13      -8.80 dB   -23.93 dB      2:46 07-We've Got a World That Swings
DR12      -8.64 dB   -24.36 dB      3:40 08-Shall we Dance: They can't take that away from me
DR12     -10.11 dB   -25.49 dB      4:24 09-Everybody Loves Somebody
DR13      -8.35 dB   -24.10 dB      3:22 10-Pal Joey: I Could Write a Book
DR13      -9.10 dB   -26.53 dB      5:04 11-Golden Apple: Lazy Afternoon
--------------------------------------------------------------------------------
Number of tracks:  11
Official DR value: DR13
Samplerate:        5644800 Hz / PCM Samplerate: 88200 Hz
Channels:          2
Bits per sample:   1
Bitrate:           11290 kbps
Codec:             DSD128
================================================================================

 

Скачивание доступно после регистрации!!
Приватный:
Нет (DHT включён)
Размер:
3.16 Гб (3,390,093,214 байт) » файлов: 14
Участники:
0 раздают, 1 качают (1 участников всего)
Внешние участники:
--- [ Обновить ]
Скорость:
291.63 Кб/c 6.79 Кб/c
18:46
47
RSS
Нет комментариев. Ваш будет первым!