Поиск

2018 Halie Loren - From The Wild Sky {Justin Time} [24-96]

2018 Halie Loren - From The Wild Sky {Justin Time} [24-96]
Стили:
Издатель (лейбл):
Состав:
  • Halie Loren - vocals, piano, percussion
  • Femi Temowo - guitars, ukulele
  • Ben Williams - bass
  • Michael Olatuja - bass
  • Andrew Yee - cello
  • Nathan Schram - viola
  • Becca Stevens - vocals (3)
  • Troy Miller - drums, percussion, piano, keyboards

Формат записи/Источник записи: [TR24][OF]
Наличие водяных знаков: Нет
Год издания/переиздания диска: 2018
Продолжительность: 42:26
Наличие сканов в содержимом раздачи: Только обложка альбома
Контейнер: FLAC (*.flac)
Тип рипа: tracks
Разрядность: 24/96
Формат: PCM
Количество каналов: 2.0
Источник: qobuz.com

Треклист:
01. Roots (3:00)
02. How To Dismantle A Life (3:16)
03. Wild Birds (4:15)
04. Paper Man (4:05)
05. I Can't Land (4:22)
06. Well-loved Woman (3:08)
07. Painter's Song. (4:37)
08. August Moon (4:16)
09. Noah (3:32)
10. Wisdom (4:06)
11. A Mi Manera (3:51)

 
Лог проверки качества
foobar2000 1.3.9 / Dynamic Range Meter 1.1.1
log date: 2018-04-27 13:45:36
--------------------------------------------------------------------------------
Analyzed: Halie Loren / From The Wild Sky
--------------------------------------------------------------------------------
DR         Peak         RMS     Duration Track
--------------------------------------------------------------------------------
DR6       -0.70 dB    -8.41 dB      3:00 01-Roots
DR6       -0.70 dB    -8.26 dB      3:16 02-How To Dismantle A Life
DR7       -0.70 dB    -9.97 dB      4:15 03-Wild Birds
DR6       -0.70 dB    -8.42 dB      4:05 04-Paper Man
DR8       -0.70 dB   -10.62 dB      4:22 05-I Can't Land
DR6       -0.70 dB    -8.88 dB      3:08 06-Well-loved Woman
DR8       -0.70 dB   -11.75 dB      4:37 07-Painter's Song.
DR7       -0.70 dB   -10.40 dB      4:16 08-August Moon
DR10      -0.70 dB   -14.72 dB      3:32 09-Noah
DR7       -0.70 dB   -10.03 dB      4:06 10-Wisdom
DR11      -0.70 dB   -13.66 dB      3:51 11-A Mi Manera
--------------------------------------------------------------------------------
Number of tracks:  11
Official DR value: DR7
Samplerate:        96000 Hz
Channels:          2
Bits per sample:   24
Bitrate:           2608 kbps
Codec:             FLAC
================================================================================

 

Скачивание доступно после регистрации!!
Приватный:
Нет (DHT включён)
Размер:
853.70 Мб (895,172,343 байт) » файлов: 14
Участники:
1 раздают, 0 качают (1 участников всего)
Внешние участники:
--- [ Обновить ]
11:33
36
RSS
Нет комментариев. Ваш будет первым!