Поиск

2018 Florian Pellissier Quintet - Bijou Voyou Caillou {Heavenly Sweetness}

2018 Florian Pellissier Quintet - Bijou Voyou Caillou {Heavenly Sweetness}
Состав:
  • Florian Pellissier / piano
  • Yoann Loustalot / trumpet, flugelhorn
  • Christophe Panzani / tenor, soprano saxophone
  • Yoni Zelnik / bass
  • David Georgelet / drums

Носитель: WEB
Дата издания: 27 апреля 2018
Издатель (лейбл): Heavenly Sweetness
Страна исполнителя (группы): France
Аудиокодек: FLAC (*.flac)
Тип рипа: tracks
Битрейт аудио: lossless
Продолжительность:  01:08:13
Источник (релизер): qobuz.com
Наличие сканов в содержимом раздачи: 

Треклист:
01. Fuck with the Police. 9:27
02. South Beach. 6:50
03. Bijou voyou caillou. 5:35
04. Hibou bleu. 4:46
05. Coup de foudre à Thessalonique. 4:22
06. Colchiques dans les prés. 2:54
07. Boca. 7:51
08. Colosse de Rhodes. 6:06
09. Interlude chou. 3:20
10. Espions. 7:41
11. Jazz Carnival. 9:21

 
DRM.log
foobar2000 1.3.8 / Dynamic Range Meter 1.1.1
log date: 2018-05-02 20:03:46
--------------------------------------------------------------------------------
Analyzed: Florian Pellissier Quintet / Bijou Voyou Caillou
--------------------------------------------------------------------------------
DR         Peak         RMS     Duration Track
--------------------------------------------------------------------------------
DR7        0.00 dB    -9.32 dB      9:28 01-Fuck with the Police
DR6        0.00 dB    -8.14 dB      6:50 02-South Beach
DR9       -0.06 dB   -11.30 dB      5:36 03-Bijou voyou caillou
DR11      -0.05 dB   -15.35 dB      4:47 04-Hibou bleu
DR8       -0.07 dB    -9.47 dB      4:22 05-Coup de foudre à Thessalonique
DR7       -0.05 dB    -9.76 dB      2:55 06-Colchiques dans les prés
DR8        0.00 dB   -11.09 dB      7:51 07-Boca
DR7        0.00 dB    -9.34 dB      6:06 08-Colosse de Rhodes
DR12      -0.12 dB   -18.06 dB      3:20 09-Interlude chou
DR7       -0.05 dB    -9.84 dB      7:41 10-Espions
DR6        0.00 dB    -6.62 dB      9:22 11-Jazz Carnival
--------------------------------------------------------------------------------
Number of tracks:  11
Official DR value: DR8
Samplerate:        44100 Hz
Channels:          2
Bits per sample:   16
Bitrate:           1012 kbps
Codec:             FLAC
================================================================================
 
Лог проверки качества
-----------------------
DON'T MODIFY THIS FILE
-----------------------
PERFORMER: auCDtect Task Manager, ver. 1.6.0 RC1 build 1.6.0.1
Copyright (c) 2008-2010 y-soft. All rights reserved
http://y-soft.org
ANALYZER: auCDtect: CD records authenticity detector, version 0.8.2
Copyright (c) 2004 Oleg Berngardt. All rights reserved.
Copyright (c) 2004 Alexander Djourik. All rights reserved.
FILE: 01 - Fuck with the Police.flac
  Size: 64556777 Hash: 228D3B03077B340CC656C7FB6F3CCF7E Accuracy: -m0
  Conclusion: CDDA 99%
  Signature: 352DC00E566A13A6E2EFFA2F9C59D40936F480E4
FILE: 02 - South Beach.flac
  Size: 49935439 Hash: F978849E3622DBFDDC4842C60370EB78 Accuracy: -m0
  Conclusion: CDDA 100%
  Signature: 177E353DDCDC0CF248C4482397224629D3449130
FILE: 03 - Bijou voyou caillou.flac
  Size: 33341145 Hash: E8EDD23B51E9CE329A336CFAA804BFE4 Accuracy: -m0
  Conclusion: CDDA 100%
  Signature: E1963F2CEB68A7307AB4388C0F48403542AE6D11
FILE: 04 - Hibou bleu.flac
  Size: 28297690 Hash: 3F23601393BEDBCB2491C0BC744FDD46 Accuracy: -m0
  Conclusion: CDDA 100%
  Signature: 93DE5AFF026EE61FDCF7F2B8EA5E06B80734F118
FILE: 05 - Coup de foudre à Thessalonique.flac
  Size: 29399742 Hash: E5115FCBF3A04C35FD1D76F170189F00 Accuracy: -m0
  Conclusion: CDDA 99%
  Signature: 50359B2C81847C3DD262A342606B92DF606618E9
FILE: 06 - Colchiques dans les prés.flac
  Size: 18712384 Hash: 4DE14ABFB2303117EDB397FEB82B4872 Accuracy: -m0
  Conclusion: CDDA 100%
  Signature: 641D7EEA15BDB6C7606613BD62712DAA64B84654
FILE: 07 - Boca.flac
  Size: 49655699 Hash: 1493EC289139F06222FA20E9499692D7 Accuracy: -m0
  Conclusion: CDDA 100%
  Signature: 818100E98B827AA48D7CB8111AD333C99AB9183B
FILE: 08 - Colosse de Rhodes.flac
  Size: 41475856 Hash: 248AE226C5FDACEA0EBE23904C1BDC18 Accuracy: -m0
  Conclusion: CDDA 100%
  Signature: 3EE2D85C59FF4FA1E159099DCAAD536133C80045
FILE: 09 - Interlude chou.flac
  Size: 13184486 Hash: 3FAF21FA8DB1678541B74687D4FB6EBF Accuracy: -m0
  Conclusion: CDDA 99%
  Signature: 533BB238B76A39554E089A34AA85F3E2D8B2080F
FILE: 10 - Espions.flac
  Size: 47735786 Hash: 9D3D72C799618F05E7025B4D13120E7C Accuracy: -m0
  Conclusion: CDDA 99%
  Signature: CC0C2E4E9D3F6525EC02D8DC28D599A65DDC45A8
FILE: 11 - Jazz Carnival.flac
  Size: 71127011 Hash: 4F5B6293D7A173C8DC92E5B8F6896BA0 Accuracy: -m0
  Conclusion: CDDA 100%
  Signature: 01495925B2FC26EE8B09B3C97CC82CF978DCB4B1

 

Скачивание доступно после регистрации!!
Приватный:
Нет (DHT включён)
Размер:
427.05 Мб (447,791,020 байт) » файлов: 16
Участники:
3 раздают, 0 качают (3 участников всего)
Внешние участники:
--- [ Обновить ]
20:23
56
RSS
Нет комментариев. Ваш будет первым!