Поиск

2018 Earl Hines - The Blues {Storyville} [1-5,6]

2018 Earl Hines - The Blues {Storyville} [1-5,6]
Стили:
Издатель (лейбл):

Формат записи/Источник записи: [DSD][OF]
Наличие водяных знаков: Нет
Год издания/переиздания диска: 2018
Продолжительность: 44:32
Наличие сканов в содержимом раздачи: Буклет PDF
Источник (релизер): hdtracks
Контейнер: DSF (*.dsf)
Тип рипа: tracks
Разрядность: 128 (5,6 MHz/1 Bit)
Формат: DST128
Количество каналов: 2.0

Треклист:
1. Cotton Club Parade: I've Got the World on a String 07:05
2. The Wizard of Oz: Over the Rainbow 08:26
3. Between the Devil and the Deep Blue Sea 04:37
4. St. Louis Woman: Come Rain or Come Shine 06:43
5. The Sky's the Limit: My Shining Hour 11:49
6. Cotton Club Parade: As Long as I Live 05:58

 
DR Log
foobar2000 1.1.10 / Dynamic Range Meter 1.1.1
log date: 2018-02-07 08:54:32
--------------------------------------------------------------------------------
Analyzed: Earl Hines / The Blues
--------------------------------------------------------------------------------
DR         Peak         RMS     Duration Track
--------------------------------------------------------------------------------
DR13      -7.50 dB   -25.14 dB      7:02 ?-Cotton Club Parade: Cotton Club Parade: I've Got the World on a String
DR14      -9.50 dB   -27.75 dB      8:23 ?-The Wizard of Oz: The Wizard of Oz: Over the Rainbow
DR14      -9.30 dB   -26.79 dB      4:34 ?-Between the Devil and the Deep Blue Sea
DR13      -9.55 dB   -25.59 dB      6:46 ?-St. Louis Woman: St. Louis Woman: Come Rain or Come Shine
DR13     -10.04 dB   -25.81 dB     11:46 ?-The Sky's the Limit: The Sky's the Limit: My Shining Hour
DR14     -11.71 dB   -28.63 dB      6:01 ?-Cotton Club Parade: Cotton Club Parade: As Long as I Live
--------------------------------------------------------------------------------
Number of tracks:  6
Official DR value: DR14
Samplerate:        5644800 Hz / PCM Samplerate: 44100 Hz
Channels:          2
Bits per sample:   24
Bitrate:           11290 kbps
Codec:             DSD128
================================================================================

 

Скачивание доступно после регистрации!!
Приватный:
Нет (DHT включён)
Размер:
3.55 Гб (3,809,730,154 байт) » файлов: 9
Участники:
2 раздают, 0 качают (2 участников всего)
Внешние участники:
16 раздают, 5 качают (21 участников всего) [ Обновить ]
22:06
104
RSS
Нет комментариев. Ваш будет первым!