Поиск

2018 David Tixier Trio feat. Mike Moreno & Sachal Vasandani - Universal Citizen

2018 David Tixier Trio feat. Mike Moreno & Sachal Vasandani - Universal Citizen
Стили:
Состав:
  • David Tixier / piano
  • Rafael Jerjen / double bass
  • Lada Obradovic / drums

featuring:

  • Mike Moreno / guitar
  • Sachal Vasandani / vocals

Носитель: WEB
Год издания: 2018
Издатель (лейбл): Web Release (Neuklang Records)
Номер по каталогу: NCD4190
Страна исполнителя (группы): France
Аудиокодек: FLAC (*.flac)
Тип рипа: tracks
Битрейт аудио: lossless
Продолжительность: 46:45 min
Источник (релизер): qobuz.com
Наличие сканов в содержимом раздачи: 

Треклист:
1. Far From the World. 7:25
2. Tokyo. 5:22
3. Lost Among Ghosts. 5:52
4. Tribute to an Old Man. 3:53
5. Arising Twilight. 1:19
6. The Fall. 4:55
7. Nothing's Real. 4:03
8. The Wayward Heroe. 3:53
9. Universal Citizen. 9:57

 
DRM.log
foobar2000 1.3.8 / Dynamic Range Meter 1.1.1
log date: 2018-05-10 00:56:06
--------------------------------------------------------------------------------
Analyzed: David Tixier Trio / Universal Citizen
--------------------------------------------------------------------------------
DR         Peak         RMS     Duration Track
--------------------------------------------------------------------------------
DR7        0.00 dB    -9.91 dB      7:25 01-Far From the World
DR8        0.00 dB   -11.25 dB      5:23 02-Tokyo
DR7        0.00 dB   -10.18 dB      5:53 03-Lost Among Ghosts
DR9        0.00 dB   -13.13 dB      3:53 04-Tribute to an Old Man
DR13       0.00 dB   -18.28 dB      1:19 05-Arising Twilight
DR9        0.00 dB   -12.60 dB      4:56 06-The Fall
DR10       0.00 dB   -13.23 dB      4:04 07-Nothing's Real
DR6        0.00 dB    -8.80 dB      3:54 08-The Wayward Heroe
DR9        0.00 dB   -12.42 dB      9:57 09-Universal Citizen
--------------------------------------------------------------------------------
Number of tracks:  9
Official DR value: DR9
Samplerate:        44100 Hz
Channels:          2
Bits per sample:   16
Bitrate:           857 kbps
Codec:             FLAC
================================================================================
 
Лог проверки качества
-----------------------
DON'T MODIFY THIS FILE
-----------------------
PERFORMER: auCDtect Task Manager, ver. 1.6.0 RC1 build 1.6.0.1
Copyright (c) 2008-2010 y-soft. All rights reserved
http://y-soft.org
ANALYZER: auCDtect: CD records authenticity detector, version 0.8.2
Copyright (c) 2004 Oleg Berngardt. All rights reserved.
Copyright (c) 2004 Alexander Djourik. All rights reserved.
FILE: 01 - Far From the World.flac
  Size: 45829091 Hash: 121C4F3190951AE32349F54D080A47EA Accuracy: -m0
  Conclusion: CDDA 99%
  Signature: 1FAEDC7EA8A412C55B0F5B8B80B98FC8A30CCC35
FILE: 02 - Tokyo.flac
  Size: 31569802 Hash: 871C646290C488DAA03D214934A6018B Accuracy: -m0
  Conclusion: CDDA 100%
  Signature: FFE2252DE90A7F76D2EA57BDA0A9767B8B1253C5
FILE: 03 - Lost Among Ghosts.flac
  Size: 36868535 Hash: 2CF086E1152B5065F9222F9B08041BA5 Accuracy: -m0
  Conclusion: CDDA 100%
  Signature: 93A28116ADA99772E0437597EA67F5E90B4C6D3B
FILE: 04 - Tribute to an Old Man.flac
  Size: 21075479 Hash: D229EECA4618FB969E3132F3880BADC8 Accuracy: -m0
  Conclusion: CDDA 100%
  Signature: ED8607497EB6D5700A9E695DD72810C815ACB58C
FILE: 05 - Arising Twilight.flac
  Size: 6793771 Hash: 49B33EDD1F745C96663E00CDACBA0508 Accuracy: -m0
  Conclusion: CDDA 100%
  Signature: 3DD17229208C46833FB69DE4B86A503DFF48DE65
FILE: 06 - The Fall.flac
  Size: 32873805 Hash: 583ABAF13135487F9F535B4E8DA968D5 Accuracy: -m0
  Conclusion: CDDA 100%
  Signature: 10B7111AE31727DC6BB72E988E6B1477597A050E
FILE: 07 - Nothing's Real.flac
  Size: 24836137 Hash: 303E28DECF65BA8120E474F239D0B398 Accuracy: -m0
  Conclusion: CDDA 100%
  Signature: 22D81ED67757A87BD9780098C621C193952A6A64
FILE: 08 - The Wayward Heroe.flac
  Size: 26228421 Hash: 20B651B8A0A644BB4135D3199B059752 Accuracy: -m0
  Conclusion: CDDA 100%
  Signature: 60090BB10193F33676253AEE9BE458DADFCA9DB5
FILE: 09 - Universal Citizen.flac
  Size: 64041459 Hash: 7A2D0B484CA7AC31D14351DC99498A79 Accuracy: -m0
  Conclusion: CDDA 100%
  Signature: 6072826CF604AFB800F4FA45449DF009F4799393

 

Скачивание доступно после регистрации!!
Приватный:
Нет (DHT включён)
Размер:
276.92 Мб (290,371,491 байт) » файлов: 14
Участники:
3 раздают, 0 качают (3 участников всего)
Внешние участники:
--- [ Обновить ]
16:30
52
RSS
Нет комментариев. Ваш будет первым!