Поиск

2018 Dave Holland - Uncharted Territories (2CD) {Dare2 010}

2018 Dave Holland - Uncharted Territories (2CD) {Dare2 010}

Состав:

Dave Holland - double bass
Evan Parker - tenor sax
Craig Taborn - piano, keyboards, electronics
Ches Smith - percussion

Год издания: 2018
Издатель (лейбл): Dare2 Records
Номер по каталогу: DARE2-010
Страна исполнителя: UK/USA
Аудиокодек: FLAC (*.flac)
Тип рипа: tracks
Битрейт аудио: lossless
Продолжительность: 65:15 + 65:45
Источник (релизер): WEB
Наличие сканов: нет

Треклист:
⇒ CD1 ⇐
01. Thought on earth
02. Piano - bass - percussion t1
03. Q&a
04. Tenor - bass w3
05. Qt12
06. Duo bass tenor w3
07. Qw2
08. Tenor - piano - bass t2
09. Organ - vibes w1
10. Bass - percussion t2
11. Tenor - piano - percussion t1
12. Qt13
⇒ CD2 ⇐
01. Tenor - bass - percussion t2
02. Piano - percussion w3
03. Qt5
04. Tenor - bass w1
05. Piano - bass - percussion t2
06. Unsteady as she goes
07. Bass - percussion t1
08. Qw5
09. Tenor - bass - percussion t1
10. Tenor - bass w3
11. Qw1

Dave Holland, Evan Parker, Craig Taiborn, Ches Smith

 
Лог проверки качества
AUDIOCHECKER v2.0 beta (build 457) - by Dester - opdester@freemail.hu
~~~~~~~~~~~~~~~~~~~~~~~~~~~~~~~~~~
-=== DO NOT EDIT THIS FILE! ===-
Path: ...\CD1
01 -=- 1 Thought On Earth.flac -=- CDDA (100%)
02 -=- 2 Piano - Bass - Percussion T1.flac -=- CDDA (100%)
03 -=- 3 Q&A.flac -=- CDDA (100%)
04 -=- 4 Tenor - Percussion W2.flac -=- CDDA (100%)
05 -=- 5 QT12.flac -=- CDDA (100%)
06 -=- 6 Tenor - Bass W3.flac -=- CDDA (100%)
07 -=- 7 QW2.flac -=- CDDA (100%)
08 -=- 8 Tenor - Piano - Bass T2.flac -=- CDDA (100%)
09 -=- 9 Organ - Vibes W1.flac -=- CDDA (100%)
10 -=- 10 Bass - Percussion T2.flac -=- CDDA (100%)
11 -=- 11 Tenor - Piano - Percussion T1.flac -=- CDDA (100%)
Summary 100,00% CDDA
115251892
AUDIOCHECKER v2.0 beta (build 457) - by Dester - opdester@freemail.hu
~~~~~~~~~~~~~~~~~~~~~~~~~~~~~~~~~~
-=== DO NOT EDIT THIS FILE! ===-
Path: ...\CD2
01 -=- 1 QT13.flac -=- CDDA (100%)
02 -=- 2 Tenor - Bass - Percussion T2.flac -=- CDDA (99%)
03 -=- 3 Piano - Percussion W3.flac -=- CDDA (100%)
04 -=- 4 QT5.flac -=- CDDA (100%)
05 -=- 5 Tenor - Bass W1.flac -=- CDDA (100%)
06 -=- 6 Piano - Bass - Percussion T2.flac -=- CDDA (100%)
07 -=- 7 Unsteady As She Goes.flac -=- CDDA (100%)
08 -=- 8 Bass - Percussion T1.flac -=- CDDA (100%)
09 -=- 9 QW5.flac -=- CDDA (100%)
10 -=- 10 Tenor - Bass - Percussion T1.flac -=- CDDA (100%)
11 -=- 11 Tenor - Bass W2.flac -=- CDDA (99%)
12 -=- 12 QW1.flac -=- CDDA (100%)
Summary 99,83% CDDA
112068692
••••••••••
foobar2000 1.3.12 / Замер динамического диапазона (DR) 1.1.1
Дата отчёта:  2018-05-12 11:51:10
--------------------------------------------------------------------------------
Анализ:   Dave Holland, Evan Parker, Craig Taiborn & Ches Smith / Uncharted Territories
--------------------------------------------------------------------------------
DR         Пики         RMS           Продолжительность трека
--------------------------------------------------------------------------------
DR10       0.00 дБ   -13.37 дБ      7:37 01-Thought On Earth
DR16      -0.50 дБ   -21.46 дБ      5:47 02-Piano - Bass - Percussion T1
DR11      -0.48 дБ   -13.89 дБ      4:40 03-Q&A
DR11      -2.25 дБ   -19.13 дБ      3:26 04-Tenor - Percussion W2
DR10       0.00 дБ   -13.29 дБ      6:10 05-QT12
DR14      -0.52 дБ   -19.32 дБ      2:45 06-Tenor - Bass W3
DR10      -0.44 дБ   -14.97 дБ      8:17 07-QW2
DR12      -0.52 дБ   -16.09 дБ      5:36 08-Tenor - Piano - Bass T2
DR14      -1.84 дБ   -21.51 дБ      6:14 09-Organ - Vibes W1
DR13       0.00 дБ   -17.86 дБ      5:08 10-Bass - Percussion T2
DR11       0.00 дБ   -14.33 дБ      9:35 11-Tenor - Piano - Percussion T1
--------------------------------------------------------------------------------
Количество треков: 11
Реальные значения DR: DR12
Частота:   44100 Гц
Каналов:   2
Разрядность:   16
Битрейт:   760 кбит/с
Кодек:   FLAC
================================================================================
foobar2000 1.3.12 / Замер динамического диапазона (DR) 1.1.1
Дата отчёта:  2018-05-12 11:51:30
--------------------------------------------------------------------------------
Анализ:   Dave Holland, Evan Parker, Craig Taiborn & Ches Smith / Uncharted Territories
--------------------------------------------------------------------------------
DR         Пики         RMS           Продолжительность трека
--------------------------------------------------------------------------------
DR14      -0.50 дБ   -19.21 дБ      6:25 01-QT13
DR11      -0.12 дБ   -13.46 дБ      4:10 02-Tenor - Bass - Percussion T2
DR9        0.00 дБ   -16.00 дБ      5:02 03-Piano - Percussion W3
DR13      -0.39 дБ   -18.02 дБ      6:54 04-QT5
DR11      -0.39 дБ   -14.67 дБ      4:16 05-Tenor - Bass W1
DR9       -0.15 дБ   -12.54 дБ      5:37 06-Piano - Bass - Percussion T2
DR12      -0.46 дБ   -15.95 дБ      5:39 07-Unsteady As She Goes
DR11      -0.10 дБ   -14.38 дБ      6:03 08-Bass - Percussion T1
DR13      -0.45 дБ   -16.29 дБ      2:27 09-QW5
DR12      -0.46 дБ   -16.36 дБ      5:19 10-Tenor - Bass - Percussion T1
DR13      -0.45 дБ   -17.84 дБ      3:46 11-Tenor - Bass W2
DR11      -0.43 дБ   -16.28 дБ     10:07 12-QW1
--------------------------------------------------------------------------------
Количество треков: 12
Реальные значения DR: DR12
Частота:   44100 Гц
Каналов:   2
Разрядность:   16
Битрейт:   655 кбит/с
Кодек:   FLAC
================================================================================

 

Скачивание доступно после регистрации!!
Приватный:
Нет (DHT включён)
Размер:
653.96 Мб (685,731,427 байт) » файлов: 29
Участники:
3 раздают, 0 качают (3 участников всего)
Внешние участники:
--- [ Обновить ]
Скорость:
0/c 2.67 Кб/c
17:27
118
RSS
Нет комментариев. Ваш будет первым!