Поиск

2018 Charles Mingus - Jazz in Detroit - Strata Concert Gallery - 46 Selden {BBE Music} [24-44,1]

2018 Charles Mingus - Jazz in Detroit - Strata Concert Gallery - 46 Selden {BBE Music} [24-44,1]
Дата записи диска:
13 февраля 1973
Дата переиздания диска:
2 ноября 2018
Номер по каталогу:
453A
Носитель:
WEB
Формат:
PCM
Тип рипа:
tracks+.cue
Контейнер:
APE (*.ape)
Количество каналов:
2.0
Разрядность/ЧД:
24/44,1
Битрейт аудио:
lossless
Время звучания:
04:10:22
Наличие сканов:
web
Страна-производитель диска (релиза):
USA
Релизёр (источник):
M0p94ok
Лог проверки качества
foobar2000 1.3.16 / Dynamic Range Meter 1.1.1
log date: 2019-04-17 00:50:45

--------------------------------------------------------------------------------
Analyzed: Bud Spangler / Jazz in Detroit / Strata Concert Gallery / 46 Selden (1)
          Charles Mingus / Jazz in Detroit / Strata Concert Gallery / 46 Selden (2-13)
--------------------------------------------------------------------------------

DR         Peak         RMS     Duration Track
--------------------------------------------------------------------------------
DR16      -0.49 dB   -20.69 dB      6:50 12-Strata Gallery Announcement / Radio Broadcast WDET FM
DR11      -0.40 dB   -13.33 dB     25:05 01-Pithecanthropus Erectus
DR14      -0.40 dB   -20.08 dB     15:04 02-The Man Who Never Sleeps
DR14      -0.40 dB   -16.25 dB     18:14 03-Peggy's Blue Skylight
DR14      -0.40 dB   -18.83 dB     23:36 04-Introduction by Bud Spangler / Celia
DR21      -0.63 dB   -27.88 dB     38:59 05-Bud Spangler Interview with Roy Brooks and Commentary
DR14      -0.40 dB   -20.14 dB     26:59 06-C Jam Blues
DR14      -0.40 dB   -18.91 dB     20:13 07-Orange Was the Color of Her Dress, Then Blue Silk
DR15      -0.40 dB   -20.75 dB     12:53 08-Dizzy Profile
DR15      -0.40 dB   -19.65 dB     26:00 09-Noddin' Ya Head Blues
DR12      -0.40 dB   -15.70 dB     24:15 10-Celia
DR14      -0.40 dB   -16.58 dB     12:00 11-Dizzy Profile
DR13      -0.40 dB   -15.43 dB     19:41 13-Pithecanthropus Erectus
--------------------------------------------------------------------------------

Number of tracks:  13
Official DR value: DR14

Samplerate:        44100 Hz
Channels:          2
Bits per sample:   24
Bitrate:           901 kbps
Codec:             FLAC
================================================================================
No seeders - write personal message to M0p94ok. Any questions - support@pro-jazz.com.
Нет сидеров - пишите в личку M0p94ok. Есть вопросы - support@pro-jazz.com
19:40
172
Нет комментариев. Ваш будет первым!