Поиск

2018 Anteloper - Kudu {International Anthem}

2018 Anteloper - Kudu {International Anthem}
Стили:
Состав:
  • Jaimie Branch / trumpet
  • Jason Nazary / drums,electronics

Носитель: WEB
Год издания: 2018
Издатель (лейбл): International Anthem
Страна исполнителя (группы): US
Аудиокодек: FLAC (*.flac)
Тип рипа: tracks
Битрейт аудио: lossless
Продолжительность: 49:58
Источник (релизер)bandcamp.com
Наличие сканов в содержимом раздачи

Треклист:
1. Oryx. 9:10
2. Fossil Record. 4:43
3. Lethal Curve. 10:54
4. Ohoneotree Suite. 15:21
5. Seclusion Self. 9:47

 DRM.log
foobar2000 1.3.8 / Dynamic Range Meter 1.1.1
log date: 2018-05-10 22:24:57

--------------------------------------------------------------------------------
Analyzed: Anteloper / Kudu
--------------------------------------------------------------------------------

DR         Peak         RMS     Duration Track
--------------------------------------------------------------------------------
DR8       -0.40 dB   -10.43 dB      9:11 01-Oryx
DR9       -0.38 dB   -11.73 dB      4:43 02-Fossil Record
DR9       -0.37 dB   -11.82 dB     10:55 03-Lethal Curve
DR5       -0.31 dB    -8.11 dB     15:22 04-Ohoneotree Suite
DR9       -0.45 dB   -12.45 dB      9:47 05-Seclusion Self
--------------------------------------------------------------------------------

Number of tracks:  5
Official DR value: DR8

Samplerate:        44100 Hz
Channels:          2
Bits per sample:   16
Bitrate:           703 kbps
Codec:             FLAC
================================================================================
 Лог проверки качества
-----------------------
DON'T MODIFY THIS FILE
-----------------------
PERFORMER: auCDtect Task Manager, ver. 1.6.0 RC1 build 1.6.0.1
Copyright (c) 2008-2010 y-soft. All rights reserved
http://y-soft.org
ANALYZER: auCDtect: CD records authenticity detector, version 0.8.2
Copyright (c) 2004 Oleg Berngardt. All rights reserved.
Copyright (c) 2004 Alexander Djourik. All rights reserved.
FILE: 01 - Oryx.flac
  Size: 54927598 Hash: 7DD0360F5F9CC67014E1C06FF4372D33 Accuracy: -m0
  Conclusion: CDDA 100%
  Signature: 09CA52830CACDEE66DADB05C8D5131D6B1BA79E6
FILE: 02 - Fossil Record.flac
  Size: 26410486 Hash: AC91286C2D0F5489E169249916FFFEB4 Accuracy: -m0
  Conclusion: CDDA 100%
  Signature: F99E850D45594842B7B55B4620422B6BAE709B85
FILE: 03 - Lethal Curve.flac
  Size: 66166317 Hash: 9994AB5D23FD934C1786A92539A10757 Accuracy: -m0
  Conclusion: CDDA 100%
  Signature: FD61B1EAC8FCF90427FCEE02668A09A099F06EEA
FILE: 04 - Ohoneotree Suite.flac
  Size: 98288080 Hash: 939CF01E40FF2B4D94E42BDB0D4A718D Accuracy: -m0
  Conclusion: CDDA 100%
  Signature: A2C367326B7AC09317973524A799988C59571256
FILE: 05 - Seclusion Self.flac
  Size: 51781945 Hash: 7CD1355F7EC0E95E4622F9BD36B4D0BF Accuracy: -m0
  Conclusion: CDDA 100%
  Signature: 228C2FD6C70FF5DBCFCA5E3BAC1A33F845A27F08

 

Скачивание доступно после регистрации!!
Приватный:
Нет (DHT включён)
Размер:
284.60 Мб (298,423,193 байт) » файлов: 11
Участники:
3 раздают, 0 качают (3 участников всего)
Внешние участники:
--- [ Обновить ]
Скорость:
0/c 6.37 Кб/c
16:14
67
RSS
Нет комментариев. Ваш будет первым!