Поиск

2017 Youn Sun Nah - She Moves On

2017 Youn Sun Nah - She Moves On
Дата издания диска:
19 мая 2017
Номер по каталогу:
9037-2
Носитель:
CD
Битрейт аудио:
lossless
Аудиокодек:
FLAC (*.flac)
Тип рипа:
tracks+.cue
Время звучания:
50:44
Наличие сканов:
  • да
Релизёр (источник):
jlgt
Треклист:

01. Traveller (3:44)
02. Teach The Gifted Children (4:13)
03. Too Late (5:04)
04. She Moves On (4:45)
05. No Other Name (2:46)
06. The Dawntreader (5:30)
07. Drifting (4:39)
08. Black Is The Colour Of My True Love's Hair (4:15)
09. A Sailor's Life (8:43)
10. Fools Rush In (4:05)
11. Evening Star (3:01)

Лог создания рипа
<spoiler title="Лог создания рипа"><pre>Exact Audio Copy V1.0 beta 3 from 29. August 2011
EAC extraction logfile from 12. June 2017, 22:11
Youn Sun Nah / She Moves On
Used drive : ASUS DRW-24F1ST a Adapter: 0 ID: 0
Read mode : Secure
Utilize accurate stream : Yes
Defeat audio cache : Yes
Make use of C2 pointers : No
Read offset correction : 6
Overread into Lead-In and Lead-Out : No
Fill up missing offset samples with silence : Yes
Delete leading and trailing silent blocks : No
Null samples used in CRC calculations : Yes
Used interface : Native Win32 interface for Win NT & 2000
Gap handling : Appended to previous track
Used output format : User Defined Encoder
Selected bitrate : 128 kBit/s
Quality : High
Add ID3 tag : No
Command line compressor : C:\Program Files (x86)\Exact Audio Copy\FLAC\FLAC.EXE
Additional command line options : -8 -V -T "ARTIST=%artist%" -T "TITLE=%title%" -T "ALBUM=%albumtitle%" -T "DATE=%year%" -T "TRACKNUMBER=%tracknr%" -T "TOTALTRACKS=%numtracks%" -T "GENRE=%genre%" -T "ALBUMARTIST=%albumartist%" -T "ALBUM ARTIST=%albumartist%" -T "COMMENT=EAC Secure Mode, Test & Copy, AccurateRip, FLAC -8" %source%
TOC of the extracted CD Track | Start | Length | Start sector | End sector --------------------------------------------------------- 1 | 0:00.00 | 3:43.65 | 0 | 16789 2 | 3:43.65 | 4:13.29 | 16790 | 35793 3 | 7:57.19 | 5:04.07 | 35794 | 58600 4 | 13:01.26 | 4:45.09 | 58601 | 79984 5 | 17:46.35 | 2:45.59 | 79985 | 92418 6 | 20:32.19 | 5:30.17 | 92419 | 117185 7 | 26:02.36 | 4:38.55 | 117186 | 138090 8 | 30:41.16 | 4:14.65 | 138091 | 157205 9 | 34:56.06 | 8:42.55 | 157206 | 196410 10 | 43:38.61 | 4:04.59 | 196411 | 214769 11 | 47:43.45 | 3:00.63 | 214770 | 228332
Track 1 Filename K:\EAC\01 - Traveller.wav Pre-gap length 0:00:02.00 Peak level 93.9 % Extraction speed 4.3 X Track quality 100.0 % Test CRC 9AE4C5B4 Copy CRC 9AE4C5B4 Track not present in AccurateRip database Copy OK
Track 2 Filename K:\EAC\02 - Teach The Gifted Children.wav Peak level 93.6 % Extraction speed 4.8 X Track quality 100.0 % Test CRC 7C95F99F Copy CRC 7C95F99F Track not present in AccurateRip database Copy OK
Track 3 Filename K:\EAC\03 - Too Late.wav Peak level 90.2 % Extraction speed 4.9 X Track quality 99.9 % Test CRC DF097E66 Copy CRC DF097E66 Track not present in AccurateRip database Copy OK
Track 4 Filename K:\EAC\04 - She Moves On.wav Peak level 99.2 % Extraction speed 5.9 X Track quality 100.0 % Test CRC 7D57DCD8 Copy CRC 7D57DCD8 Track not present in AccurateRip database Copy OK
Track 5 Filename K:\EAC\05 - No Other Name.wav Peak level 86.1 % Extraction speed 5.7 X Track quality 100.0 % Test CRC 9E24A4D9 Copy CRC 9E24A4D9 Track not present in AccurateRip database Copy OK
Track 6 Filename K:\EAC\06 - The Dawntreader.wav Peak level 92.9 % Extraction speed 6.6 X Track quality 100.0 % Test CRC 9BFF40E4 Copy CRC 9BFF40E4 Track not present in AccurateRip database Copy OK
Track 7 Filename K:\EAC\07 - Drifting.wav Peak level 95.0 % Extraction speed 6.9 X Track quality 100.0 % Test CRC 37579307 Copy CRC 37579307 Track not present in AccurateRip database Copy OK
Track 8 Filename K:\EAC\08 - Black Is The Colour Of My True Love's Hair.wav Peak level 87.4 % Extraction speed 7.1 X Track quality 100.0 % Test CRC 4A289544 Copy CRC 4A289544 Track not present in AccurateRip database Copy OK
Track 9 Filename K:\EAC\09 - A Sailor's Life.wav Peak level 93.8 % Extraction speed 8.1 X Track quality 100.0 % Test CRC 076883BB Copy CRC 076883BB Track not present in AccurateRip database Copy OK
Track 10 Filename K:\EAC\10 - Fools Rush In.wav Peak level 89.5 % Extraction speed 7.8 X Track quality 100.0 % Test CRC 77CB63CD Copy CRC 77CB63CD Track not present in AccurateRip database Copy OK
Track 11 Filename K:\EAC\11 - Evening Star.wav Peak level 88.2 % Extraction speed 7.5 X Track quality 100.0 % Test CRC B6EB7E9D Copy CRC B6EB7E9D Track not present in AccurateRip database Copy OK
None of the tracks are present in the AccurateRip database
No errors occurred
End of status report
==== Log checksum 9309F9C978DC3E971CA7B56081F12FD85DCEA46CE71B1D2E1A2C08AC8C4DD7FD ====</pre></spoiler>
Содержание индексной карты (.CUE)
<spoiler title="Содержание индексной карты (.CUE)"><pre>REM GENRE Jazz
REM DATE 2017
REM DISCID 9C0BE40B
REM COMMENT "ExactAudioCopy v1.0b3"
PERFORMER "Youn Sun Nah"
TITLE "She Moves On"
FILE "01 - Traveller.wav" WAVE TRACK 01 AUDIO TITLE "Traveller" PERFORMER "Youn Sun Nah" FLAGS DCP INDEX 01 00:00:00
FILE "02 - Teach The Gifted Children.wav" WAVE TRACK 02 AUDIO TITLE "Teach The Gifted Children" PERFORMER "Youn Sun Nah" FLAGS DCP INDEX 01 00:00:00
FILE "03 - Too Late.wav" WAVE TRACK 03 AUDIO TITLE "Too Late" PERFORMER "Youn Sun Nah" FLAGS DCP INDEX 01 00:00:00
FILE "04 - She Moves On.wav" WAVE TRACK 04 AUDIO TITLE "She Moves On" PERFORMER "Youn Sun Nah" FLAGS DCP INDEX 01 00:00:00
FILE "05 - No Other Name.wav" WAVE TRACK 05 AUDIO TITLE "No Other Name" PERFORMER "Youn Sun Nah" FLAGS DCP INDEX 01 00:00:00
FILE "06 - The Dawntreader.wav" WAVE TRACK 06 AUDIO TITLE "The Dawntreader" PERFORMER "Youn Sun Nah" FLAGS DCP INDEX 01 00:00:00
FILE "07 - Drifting.wav" WAVE TRACK 07 AUDIO TITLE "Drifting" PERFORMER "Youn Sun Nah" FLAGS DCP INDEX 01 00:00:00
FILE "08 - Black Is The Colour Of My True Love's Hair.wav" WAVE TRACK 08 AUDIO TITLE "Black Is The Colour Of My True Love's Hair" PERFORMER "Youn Sun Nah" FLAGS DCP INDEX 01 00:00:00
FILE "09 - A Sailor's Life.wav" WAVE TRACK 09 AUDIO TITLE "A Sailor's Life" PERFORMER "Youn Sun Nah" FLAGS DCP INDEX 01 00:00:00
FILE "10 - Fools Rush In.wav" WAVE TRACK 10 AUDIO TITLE "Fools Rush In" PERFORMER "Youn Sun Nah" FLAGS DCP INDEX 01 00:00:00
FILE "11 - Evening Star.wav" WAVE TRACK 11 AUDIO TITLE "Evening Star" PERFORMER "Youn Sun Nah" FLAGS DCP INDEX 01 00:00:00</pre></spoiler>
Приватный:
Нет (DHT включён)
Размер:
352.41 Мб (369,527,060 байт) » файлов: 21
Участники:
0 раздают, 0 качают (0 участников всего)
Внешние участники:
18 раздают, 6 качают (24 участников всего) [ Обновить ]
Скорость:
0/c 40.04 Кб/c
23:06
94
RSS
Нет комментариев. Ваш будет первым!