Поиск

2017 Thunkfish - Renegades

2017 Thunkfish - Renegades
Страна-производитель диска (релиза):
UK
Дата издания диска:
2 июня 2017
Номер по каталогу:
THUNK01
Носитель:
CD
Битрейт аудио:
lossless
Аудиокодек:
FLAC (*.flac)
Тип рипа:
image+.cue
Время звучания:
35:10
Наличие сканов:
  • да
Релизёр (источник):
vp_sunset
Состав:
  • — om Pickles / Saxophones, Flute, Piano
  • — Charles Dearness / Trumpet
  • — Jed Potts / Guitars, Lap Steel
  • — Tom Wilkinson / Bass
  • — Richard Kass / Drums, Cymbals

Recorded and mixed by Garry Boyleat Slate Room, Pencaitland, ScotlandMastered by Stuart Hamiltonat Castlesound, Pencaitland, ScotlandProduced by Thunkfish and Garry Boyle
All tracks written by Tom Pickles,except track 10, written by Jed Potts
releases June 2, 2017

01. //erutparicolev//. 0:24
02. Hipsterminate. 6:31
03. Renegades of Pthronk. 4:43
04. //haggi//. 1:31
05. Militant Wasp Faction. 7:18
06. Haggis Pizza. 1:44
07. Facewreck. 5:26
08. //ipste//. 0:47
09. Velocirapture. 5:14
10. //requiem for pthronk//. 1:26

Лог создания рипа
<spoiler title="Лог создания рипа"><pre>Exact Audio Copy V1.0 beta 3 from 29. August 2011
EAC extraction logfile from 18. June 2017, 11:16
Thunkfish / Renegades
Used drive : ATAPI iHAS124 E Adapter: 0 ID: 0
Read mode : Secure
Utilize accurate stream : Yes
Defeat audio cache : Yes
Make use of C2 pointers : No
Read offset correction : 6
Overread into Lead-In and Lead-Out : No
Fill up missing offset samples with silence : Yes
Delete leading and trailing silent blocks : No
Null samples used in CRC calculations : Yes
Used interface : Native Win32 interface for Win NT & 2000
Gap handling : Appended to previous track
Used output format : Internal WAV Routines
Sample format : 44.100 Hz; 16 Bit; Stereo
TOC of the extracted CD Track | Start | Length | Start sector | End sector --------------------------------------------------------- 1 | 0:00.00 | 0:24.58 | 0 | 1857 2 | 0:24.58 | 6:31.59 | 1858 | 31241 3 | 6:56.42 | 4:43.39 | 31242 | 52505 4 | 11:40.06 | 1:31.26 | 52506 | 59356 5 | 13:11.32 | 7:18.32 | 59357 | 92238 6 | 20:29.64 | 1:44.44 | 92239 | 100082 7 | 22:14.33 | 5:26.54 | 100083 | 124586 8 | 27:41.12 | 0:47.74 | 124587 | 128185 9 | 28:29.11 | 5:14.24 | 128186 | 151759 10 | 33:43.35 | 1:26.27 | 151760 | 158236
Track 1 Filename C:\_EAC\01. --erutparicolev--.wav Pre-gap length 0:00:02.00 Peak level 71.7 % Extraction speed 0.4 X Track quality 100.0 % Test CRC 42E0FAE1 Copy CRC 42E0FAE1 Track not present in AccurateRip database Copy OK
Track 2 Filename C:\_EAC\02. Hipsterminate.wav Peak level 97.7 % Extraction speed 1.1 X Track quality 100.0 % Test CRC CDFA4391 Copy CRC CDFA4391 Track not present in AccurateRip database Copy OK
Track 3 Filename C:\_EAC\03. Renegades of Pthronk.wav Peak level 97.7 % Extraction speed 1.1 X Track quality 99.9 % Test CRC D684FDA8 Copy CRC D684FDA8 Track not present in AccurateRip database Copy OK
Track 4 Filename C:\_EAC\04. --haggi--.wav Peak level 97.7 % Extraction speed 1.1 X Track quality 100.0 % Test CRC D5674A10 Copy CRC D5674A10 Track not present in AccurateRip database Copy OK
Track 5 Filename C:\_EAC\05. Militant Wasp Faction.wav Peak level 97.7 % Extraction speed 1.5 X Track quality 100.0 % Test CRC 0B68E2A8 Copy CRC 0B68E2A8 Track not present in AccurateRip database Copy OK
Track 6 Filename C:\_EAC\06. Haggis Pizza.wav Peak level 97.7 % Extraction speed 1.0 X Track quality 99.8 % Test CRC BA9F89B9 Copy CRC BA9F89B9 Track not present in AccurateRip database Copy OK
Track 7 Filename C:\_EAC\07. Facewreck.wav Peak level 97.7 % Extraction speed 1.6 X Track quality 100.0 % Test CRC 9E6D6C4C Copy CRC 9E6D6C4C Track not present in AccurateRip database Copy OK
Track 8 Filename C:\_EAC\08. --ipste--.wav Peak level 66.1 % Extraction speed 1.0 X Track quality 100.0 % Test CRC B8ADA4DF Copy CRC B8ADA4DF Track not present in AccurateRip database Copy OK
Track 9 Filename C:\_EAC\09. Velocirapture.wav Peak level 97.7 % Extraction speed 1.6 X Track quality 100.0 % Test CRC 36BCD661 Copy CRC 36BCD661 Track not present in AccurateRip database Copy OK
Track 10 Filename C:\_EAC\10. --requiem for pthronk--.wav Peak level 82.9 % Extraction speed 1.4 X Track quality 100.0 % Test CRC 825BA36B Copy CRC 825BA36B Track not present in AccurateRip database Copy OK
None of the tracks are present in the AccurateRip database
No errors occurred
End of status report
==== Log checksum 065197F5E4EB92C9111A18971CAC3BEFCDBB2D09906ABD1935B4CF759FA48774 ====</pre></spoiler>
Содержание индексной карты (.CUE)
<spoiler title="Содержание индексной карты (.CUE)"><pre>REM GENRE "Fusion / Jazz-Rock"
REM DATE 2017
REM DISCID 6A083D0A
REM COMMENT "ExactAudioCopy v1.0b3"
PERFORMER "Thunkfish"
TITLE "Renegades"
FILE "01. --erutparicolev--.wav" WAVE TRACK 01 AUDIO TITLE "--erutparicolev--" PERFORMER "Thunkfish" INDEX 01 00:00:00
FILE "02. Hipsterminate.wav" WAVE TRACK 02 AUDIO TITLE "Hipsterminate" PERFORMER "Thunkfish" INDEX 01 00:00:00
FILE "03. Renegades of Pthronk.wav" WAVE TRACK 03 AUDIO TITLE "Renegades of Pthronk" PERFORMER "Thunkfish" INDEX 01 00:00:00
FILE "04. --haggi--.wav" WAVE TRACK 04 AUDIO TITLE "--haggi--" PERFORMER "Thunkfish" INDEX 01 00:00:00
FILE "05. Militant Wasp Faction.wav" WAVE TRACK 05 AUDIO TITLE "Militant Wasp Faction" PERFORMER "Thunkfish" INDEX 01 00:00:00
FILE "06. Haggis Pizza.wav" WAVE TRACK 06 AUDIO TITLE "Haggis Pizza" PERFORMER "Thunkfish" INDEX 01 00:00:00
FILE "07. Facewreck.wav" WAVE TRACK 07 AUDIO TITLE "Facewreck" PERFORMER "Thunkfish" INDEX 01 00:00:00
FILE "08. --ipste--.wav" WAVE TRACK 08 AUDIO TITLE "--ipste--" PERFORMER "Thunkfish" INDEX 01 00:00:00
FILE "09. Velocirapture.wav" WAVE TRACK 09 AUDIO TITLE "Velocirapture" PERFORMER "Thunkfish" INDEX 01 00:00:00
FILE "10. --requiem for pthronk--.wav" WAVE TRACK 10 AUDIO TITLE "--requiem for pthronk--" PERFORMER "Thunkfish" INDEX 01 00:00:00</pre></spoiler>
Лог проверки качества
<spoiler title="Лог проверки качества"><pre>-----------------------
DON'T MODIFY THIS FILE
-----------------------
PERFORMER: auCDtect Task Manager, ver. 1.6.0 RC1 build 1.6.0.1
Copyright (c) 2008-2010 y-soft. All rights reserved
http://y-soft.org
ANALYZER: auCDtect: CD records authenticity detector, version 0.8.2
Copyright (c) 2004 Oleg Berngardt. All rights reserved.
Copyright (c) 2004 Alexander Djourik. All rights reserved.
FILE: 01. --erutparicolev--.flac Size: 2171944 Hash: AC41063F9A5F1BAD237C12232D1233F4 Accuracy: -m0 Conclusion: CDDA 100% Signature: 0EA45CC7876423255F6C9BDDCBE6A68AE79A8994
FILE: 02. Hipsterminate.flac Size: 46119997 Hash: DF4A33778684C0A0473096DCE380ED2F Accuracy: -m0 Conclusion: CDDA 100% Signature: D3201BB51ED6580420786A957B51502E4BE7479E
FILE: 03. Renegades of Pthronk.flac Size: 34749407 Hash: C1BAC1B0DD4DC43D60E770483BC6C99B Accuracy: -m0 Conclusion: CDDA 100% Signature: 6ED15947D14BC64DAFA6EB419C5EC79B33DCD740
FILE: 04. --haggi--.flac Size: 7926209 Hash: 94E4A44EBABDDDF887A4008747B6495C Accuracy: -m0 Conclusion: CDDA 100% Signature: 48C3BE67FE7BDC70F5CF5D408B1076371191D2BF
FILE: 05. Militant Wasp Faction.flac Size: 53964905 Hash: 08509480E6BC8D8B1F9D7C9EAFA99FFC Accuracy: -m0 Conclusion: CDDA 100% Signature: 0D2AB0CB9141DCE3BBB6674312BDEA9AF1247E1E
FILE: 06. Haggis Pizza.flac Size: 10213632 Hash: 725805C53FA0EACEDA9C753305417A2B Accuracy: -m0 Conclusion: CDDA 100% Signature: F7DD7EFF40F6097B01F8812663B3DFC0D5685A12
FILE: 07. Facewreck.flac Size: 36260342 Hash: 068738C9BCFBA47D7462E39F6244D399 Accuracy: -m0 Conclusion: CDDA 100% Signature: ADB8950A888E7C244BB6EE00DA420CDAB159BCB1
FILE: 08. --ipste--.flac Size: 4232610 Hash: 4B189B672833A0AF99EFC214577963D0 Accuracy: -m0 Conclusion: CDDA 100% Signature: 7DE4CA0A74DD228E85BBBEC963579FD603916016
FILE: 09. Velocirapture.flac Size: 39887872 Hash: 3EC65A71AFE996F28A526E2C373473B4 Accuracy: -m0 Conclusion: CDDA 100% Signature: AFAEA0C25A57DECE076C7B6DB4A3FBEE728003D7
FILE: 10. --requiem for pthronk--.flac Size: 7333718 Hash: 588B411C4DF4DD2589C18D01FE696351 Accuracy: -m0 Conclusion: CDDA 100% Signature: 3BD5130931618C39B0521A1D1B2DFC1CDD4212C0</pre></spoiler>
Приватный:
Нет (DHT включён)
Размер:
291.54 Мб (305,704,124 байт) » файлов: 21
Участники:
0 раздают, 0 качают (0 участников всего)
Внешние участники:
5 раздают, 2 качают (7 участников всего) [ Обновить ]
09:49
148
RSS
Нет комментариев. Ваш будет первым!