Поиск

2017 Ron Carter & Richard Galliano - An Evening With (Live at the Theaterstübchen, Kassel) {In+Out IORCD 771322} [24-96]

2017 Ron Carter & Richard Galliano - An Evening With (Live at the Theaterstübchen, Kassel) {In+Out IORCD 771322} [24-96]
Стили:
Дата издания диска:
19 мая 2017
Издатель (лейбл):
Номер по каталогу:
IORCD 771322
Носитель:
WEB
Формат:
PCM
Тип рипа:
tracks
Контейнер:
FLAC (*.flac)
Количество каналов:
2.0
Разрядность/ЧД:
24/96
Время звучания:
00:59:02
Наличие сканов:
только обложка
Страна-производитель диска (релиза):
USA
Релизёр (источник):
M0p94ok

Треклист:

01. Einbahnstrasse от Ron Carter - 05:56
02. Tea for Toots от Ron Carter - 06:18
03. Billie от Ron Carter - 05:51
04. Waltz for Nicky от Ron Carter - 05:13
05. You Are My Sunshine от Ron Carter - 05:39
06. Tango pour Claude от Ron Carter - 04:24
07. Blues for D.P. от Ron Carter - 04:46
08. Aria/Libertango от Ron Carter - 05:38
09. Ah, Rio от Ron Carter - 05:12
10. First Trip от Ron Carter -  05:15
11. It's About Time - Bonustrack Digital Only от Ron Carter - 04:45

Лог проверки качества
foobar2000 1.4.3 / Dynamic Range Meter 1.1.1
log date: 2020-03-06 10:30:09

--------------------------------------------------------------------------------
Analyzed: Ron Carter / An Evening With (Live at the Theaterstübchen, Kassel)
--------------------------------------------------------------------------------

DR         Peak         RMS     Duration Track
--------------------------------------------------------------------------------
DR14      -0.56 dB   -16.68 dB      5:56 01-Einbahnstrasse
DR13      -0.56 dB   -16.48 dB      6:18 02-Tea for Toots
DR13      -0.64 dB   -17.42 dB      5:52 03-Billie
DR13      -0.56 dB   -16.43 dB      5:13 04-Waltz for Nicky
DR12      -0.56 dB   -19.00 dB      5:40 05-You Are My Sunshine
DR12      -0.56 dB   -15.39 dB      4:25 06-Tango pour Claude
DR13      -0.56 dB   -16.34 dB      4:47 07-Blues for D.P.
DR14      -0.55 dB   -18.89 dB      5:38 08-Aria/Libertango
DR13      -0.56 dB   -16.25 dB      5:13 09-Ah, Rio
DR13      -0.56 dB   -16.93 dB      5:16 10-First Trip
DR13      -0.57 dB   -17.05 dB      4:45 11-It's About Time - Bonustrack Digital Only
--------------------------------------------------------------------------------

Number of tracks:  11
Official DR value: DR13

Samplerate:        96000 Hz
Channels:          2
Bits per sample:   24
Bitrate:           2526 kbps
Codec:             FLAC
================================================================================
Приватный:
Нет (DHT включён)
Размер:
1.07 Гб (1,145,495,965 байт) » файлов: 13
Участники:
11 раздают, 0 качают (11 участников всего)
Внешние участники:
--- [ Обновить ]
Есть вопросы - пишите личное сообщение пользователю M0p94ok.
11:10
31
Нет комментариев. Ваш будет первым!