Поиск

2017 Pat Martino - Formidable {HighNote HCD 7307}

2017 Pat Martino - Formidable {HighNote HCD 7307}
Стили:
Дата издания диска:
20 октября 2017
Издатель (лейбл):
Номер по каталогу:
HCD 7307
Носитель:
CD
Битрейт аудио:
lossless
Аудиокодек:
FLAC (*.flac)
Тип рипа:
tracks+.cue
Время звучания:
71:02
Наличие сканов:
  • нет
Релизёр (источник):
runthatshit
Состав:

Pat Martino — guitar, leader
Pat Bianchi — organ
Carmen Intorre, Jr. — drums
Adam Niewood — tenor saxophone (#1-3,5,7,9)
Alex Norris — trumpet (#1,3,5,7,9), flugelhorn (#2)

01. El Nino (Calderazzi) - 7:08
02. Hipsippy Blues (Mobley) - 6:58
03. Homage (Niewood) - 9:12
04. Duke Ellington's Sound of Love (Mingus) - 7:55
05. El Hombre (Martino) - 7:02
06. In Your Own Sweet Way (Brubeck) - 8:16
07. Nightwings (Martino) - 8:32
08. In a Sentimental Mood (Ellington) - 9:34
09. On the Stairs (Martino) - 6:25

Лог создания рипа
X Lossless Decoder version 20170729 (150.3)

XLD extraction logfile from 2017-12-11 20:51:19 -0500

Pat Martino / Formidable

Used drive : PIONEER BD-RW   BDR-XD05 (revision 3.01)
Media type : Pressed CD

Ripper mode             : XLD Secure Ripper
Disable audio cache     : OK for the drive with a cache less than 1375KiB
Make use of C2 pointers : NO
Read offset correction  : 667
Max retry count         : 20
Gap status              : Analyzed, Appended (except HTOA)

TOC of the extracted CD
     Track |   Start  |  Length  | Start sector | End sector
    ---------------------------------------------------------
        1  | 00:00:00 | 07:07:59 |         0    |    32083
        2  | 07:07:59 | 06:58:37 |     32084    |    63470
        3  | 14:06:21 | 09:12:21 |     63471    |   104891
        4  | 23:18:42 | 07:54:43 |    104892    |   140484
        5  | 31:13:10 | 07:02:17 |    140485    |   172151
        6  | 38:15:27 | 08:16:36 |    172152    |   209387
        7  | 46:31:63 | 08:31:68 |    209388    |   247780
        8  | 55:03:56 | 09:34:12 |    247781    |   290842
        9  | 64:37:68 | 06:25:01 |    290843    |   319718

AccurateRip Summary
    Disc not found in AccurateRip DB.

All Tracks
    Album gain               : -4.84 dB
    Peak                     : 0.994293
    Statistics
        Read error                           : 0
        Jitter error (maybe fixed)           : 0
        Retry sector count                   : 0
        Damaged sector count                 : 0

Track 01
    Filename : /Volumes/Media/_Music-Rips/runthatshit/Pat Martino - Formidable (Unknown Year) [CD-FLAC]/01 El Nino.flac
    Pre-gap length : 00:02:00

    Track gain               : -4.24 dB
    Peak                     : 0.994293
    CRC32 hash (test run)    : 4928040F
    CRC32 hash               : 4928040F
    CRC32 hash (skip zero)   : 1B568FB3
    AccurateRip v1 signature : 1CD79E51
    AccurateRip v2 signature : B7FDFEF6
        ->Track not present in AccurateRip database.
    Statistics
        Read error                           : 0
        Jitter error (maybe fixed)           : 0
        Retry sector count                   : 0
        Damaged sector count                 : 0

Track 02
    Filename : /Volumes/Media/_Music-Rips/runthatshit/Pat Martino - Formidable (Unknown Year) [CD-FLAC]/02 Hipsippy Blues.flac

    Track gain               : -5.17 dB
    Peak                     : 0.994232
    CRC32 hash (test run)    : 2F6E6B66
    CRC32 hash               : 2F6E6B66
    CRC32 hash (skip zero)   : C668F418
    AccurateRip v1 signature : 08FC1642
    AccurateRip v2 signature : 69380FBC
        ->Track not present in AccurateRip database.
    Statistics
        Read error                           : 0
        Jitter error (maybe fixed)           : 0
        Retry sector count                   : 0
        Damaged sector count                 : 0

Track 03
    Filename : /Volumes/Media/_Music-Rips/runthatshit/Pat Martino - Formidable (Unknown Year) [CD-FLAC]/03 Homage.flac

    Track gain               : -5.12 dB
    Peak                     : 0.994293
    CRC32 hash (test run)    : CC124B21
    CRC32 hash               : CC124B21
    CRC32 hash (skip zero)   : 5961870A
    AccurateRip v1 signature : 1574709F
    AccurateRip v2 signature : D738F636
        ->Track not present in AccurateRip database.
    Statistics
        Read error                           : 0
        Jitter error (maybe fixed)           : 0
        Retry sector count                   : 0
        Damaged sector count                 : 0

Track 04
    Filename : /Volumes/Media/_Music-Rips/runthatshit/Pat Martino - Formidable (Unknown Year) [CD-FLAC]/04 Duke Ellington's Sound Of Love.flac

    Track gain               : -5.90 dB
    Peak                     : 0.974365
    CRC32 hash (test run)    : 1BF65ED9
    CRC32 hash               : 1BF65ED9
    CRC32 hash (skip zero)   : 8DD66746
    AccurateRip v1 signature : 9A8ACB52
    AccurateRip v2 signature : 7D1BEF76
        ->Track not present in AccurateRip database.
    Statistics
        Read error                           : 0
        Jitter error (maybe fixed)           : 0
        Retry sector count                   : 0
        Damaged sector count                 : 0

Track 05
    Filename : /Volumes/Media/_Music-Rips/runthatshit/Pat Martino - Formidable (Unknown Year) [CD-FLAC]/05 El Hombre.flac

    Track gain               : -3.41 dB
    Peak                     : 0.994202
    CRC32 hash (test run)    : 55B71BE3
    CRC32 hash               : 55B71BE3
    CRC32 hash (skip zero)   : C7E96608
    AccurateRip v1 signature : F26D6A94
    AccurateRip v2 signature : 5DCE65D4
        ->Track not present in AccurateRip database.
    Statistics
        Read error                           : 0
        Jitter error (maybe fixed)           : 0
        Retry sector count                   : 0
        Damaged sector count                 : 0

Track 06
    Filename : /Volumes/Media/_Music-Rips/runthatshit/Pat Martino - Formidable (Unknown Year) [CD-FLAC]/06 In Your Own Sweet Way.flac

    Track gain               : -4.74 dB
    Peak                     : 0.994232
    CRC32 hash (test run)    : DCF4FFE4
    CRC32 hash               : DCF4FFE4
    CRC32 hash (skip zero)   : 7E250051
    AccurateRip v1 signature : CC3F750D
    AccurateRip v2 signature : A8995231
        ->Track not present in AccurateRip database.
    Statistics
        Read error                           : 0
        Jitter error (maybe fixed)           : 0
        Retry sector count                   : 0
        Damaged sector count                 : 0

Track 07
    Filename : /Volumes/Media/_Music-Rips/runthatshit/Pat Martino - Formidable (Unknown Year) [CD-FLAC]/07 Nightwings.flac

    Track gain               : -4.98 dB
    Peak                     : 0.994232
    CRC32 hash (test run)    : 4BC3F01F
    CRC32 hash               : 4BC3F01F
    CRC32 hash (skip zero)   : 99BB1CFA
    AccurateRip v1 signature : 7137F315
    AccurateRip v2 signature : 3ADED84D
        ->Track not present in AccurateRip database.
    Statistics
        Read error                           : 0
        Jitter error (maybe fixed)           : 0
        Retry sector count                   : 0
        Damaged sector count                 : 0

Track 08
    Filename : /Volumes/Media/_Music-Rips/runthatshit/Pat Martino - Formidable (Unknown Year) [CD-FLAC]/08 In A Sentimental Mood.flac

    Track gain               : -4.91 dB
    Peak                     : 0.992981
    CRC32 hash (test run)    : 2ACE64E0
    CRC32 hash               : 2ACE64E0
    CRC32 hash (skip zero)   : D3E4E158
    AccurateRip v1 signature : 468FFCA8
    AccurateRip v2 signature : 0969C1C5
        ->Track not present in AccurateRip database.
    Statistics
        Read error                           : 0
        Jitter error (maybe fixed)           : 0
        Retry sector count                   : 0
        Damaged sector count                 : 0

Track 09
    Filename : /Volumes/Media/_Music-Rips/runthatshit/Pat Martino - Formidable (Unknown Year) [CD-FLAC]/09 On The Stairs.flac

    Track gain               : -4.55 dB
    Peak                     : 0.994232
    CRC32 hash (test run)    : 2E9A6165
    CRC32 hash               : 2E9A6165
    CRC32 hash (skip zero)   : EE558EBE
    AccurateRip v1 signature : 45EEE890
    AccurateRip v2 signature : 9876C681
        ->Track not present in AccurateRip database.
    Statistics
        Read error                           : 0
        Jitter error (maybe fixed)           : 0
        Retry sector count                   : 0
        Damaged sector count                 : 0

No errors occurred

End of status report

-----BEGIN XLD SIGNATURE-----
4ZcssCgDjQqS7OeTWmUq494IksQScRGC2iGiIV5z9SWnrVNGt89wkctIH7yXDunS5R96sVvy.AS6LLKljlSIxiYVLfKLB.niFmyw1o8
-----END XLD SIGNATURE-----
Содержание индексной карты (.CUE)
TITLE "Formidable"
PERFORMER "Pat Martino"
CATALOG 0632375730727
REM GENRE "Jazz"
REM DATE "2017"
REM DISCID 8E10A609
REM REPLAYGAIN_ALBUM_GAIN -4.84 dB
REM REPLAYGAIN_ALBUM_PEAK 0.994293
FILE "01 - El Nino.flac" WAVE
  TRACK 01 AUDIO
    TITLE "El Nino"
    ISRC USHNR1730701
    REM REPLAYGAIN_TRACK_GAIN -4.24 dB
    REM REPLAYGAIN_TRACK_PEAK 0.994293
    INDEX 01 00:00:00
FILE "02 - Hipsippy Blues.flac" WAVE
  TRACK 02 AUDIO
    TITLE "Hipsippy Blues"
    ISRC USHNR1730702
    REM REPLAYGAIN_TRACK_GAIN -5.17 dB
    REM REPLAYGAIN_TRACK_PEAK 0.994232
    INDEX 01 00:00:00
FILE "03 - Homage.flac" WAVE
  TRACK 03 AUDIO
    TITLE "Homage"
    ISRC USHNR1730703
    REM REPLAYGAIN_TRACK_GAIN -5.12 dB
    REM REPLAYGAIN_TRACK_PEAK 0.994293
    INDEX 01 00:00:00
FILE "04 - Duke Ellington's Sound of Love.flac" WAVE
  TRACK 04 AUDIO
    TITLE "Duke Ellington's Sound of Love"
    ISRC USHNR1730704
    REM REPLAYGAIN_TRACK_GAIN -5.90 dB
    REM REPLAYGAIN_TRACK_PEAK 0.974365
    INDEX 01 00:00:00
FILE "05 - El Hombre.flac" WAVE
  TRACK 05 AUDIO
    TITLE "El Hombre"
    ISRC USHNR1730705
    REM REPLAYGAIN_TRACK_GAIN -3.41 dB
    REM REPLAYGAIN_TRACK_PEAK 0.994202
    INDEX 01 00:00:00
FILE "06 - In Your Own Sweet Way.flac" WAVE
  TRACK 06 AUDIO
    TITLE "In Your Own Sweet Way"
    ISRC USHNR1730706
    REM REPLAYGAIN_TRACK_GAIN -4.74 dB
    REM REPLAYGAIN_TRACK_PEAK 0.994232
    INDEX 01 00:00:00
FILE "07 - Nightwings.flac" WAVE
  TRACK 07 AUDIO
    TITLE "Nightwings"
    ISRC USHNR1730707
    REM REPLAYGAIN_TRACK_GAIN -4.98 dB
    REM REPLAYGAIN_TRACK_PEAK 0.994232
    INDEX 01 00:00:00
FILE "08 - In a Sentimental Mood.flac" WAVE
  TRACK 08 AUDIO
    TITLE "In a Sentimental Mood"
    ISRC USHNR1730708
    REM REPLAYGAIN_TRACK_GAIN -4.91 dB
    REM REPLAYGAIN_TRACK_PEAK 0.992981
    INDEX 01 00:00:00
FILE "09 - On the Stairs.flac" WAVE
  TRACK 09 AUDIO
    TITLE "On the Stairs"
    ISRC USHNR1730709
    REM REPLAYGAIN_TRACK_GAIN -4.55 dB
    REM REPLAYGAIN_TRACK_PEAK 0.994232
    INDEX 01 00:00:00
Лог проверки качества
[CUETools log; Date: 12.12.2017 12:58:19; Version: 2.1.5]
[CTDB TOCID: 6Ad1svwOZZpDJglZXk8DWYbegRE-] found.
Track | CTDB Status
  1   | (8/8) Accurately ripped
  2   | (8/8) Accurately ripped
  3   | (8/8) Accurately ripped
  4   | (8/8) Accurately ripped
  5   | (8/8) Accurately ripped
  6   | (8/8) Accurately ripped
  7   | (8/8) Accurately ripped
  8   | (8/8) Accurately ripped
  9   | (8/8) Accurately ripped
[AccurateRip ID: 00181f0f-00b21aa4-8e10a609] disk not present in database.

Track Peak [ CRC32  ] [W/O NULL]
 --   99,4 [281D5FD6] [0B8C663F]
 01   99,4 [4928040F] [1B568FB3]
 02   99,4 [2F6E6B66] [C668F418]
 03   99,4 [CC124B21] [5961870A]
 04   97,4 [1BF65ED9] [8DD66746]
 05   99,4 [55B71BE3] [C7E96608]
 06   99,4 [DCF4FFE4] [7E250051]
 07   99,4 [4BC3F01F] [99BB1CFA]
 08   99,2 [2ACE64E0] [D3E4E158]
 09   99,4 [2E9A6165] [EE558EBE]
Скачивание доступно после регистрации!!
Приватный:
Нет (DHT включён)
Размер:
445.50 Мб (467,142,225 байт) » файлов: 15
Участники:
0 раздают, 0 качают (0 участников всего)
Внешние участники:
--- [ Обновить ]
12:09
276
RSS
Нет комментариев. Ваш будет первым!