Поиск

2017 Massimo Farao’ Afro Cuban Piano Quartet - Blue Bossa {Venus} [DSD64]

2017 Massimo Farao’ Afro Cuban Piano Quartet - Blue Bossa {Venus} [DSD64]
Стили:
Дата издания диска:
18 октября 2017
Издатель (лейбл):
Номер по каталогу:
VHGD-230
Битрейт аудио:
lossless

Треклист:

01. South Seas  05:27
02. The Fall of Love  04:16
03. Kelly Roll  03:40
04. Falling in Love with Love  08:11
05. But Not for Me  07:07
06. Theme from Mash  05:53
07. Not a Tear  05:07
08. The Way You Look Tonight  08:38
09. Canadian Sunset  08:55
10. Sunny  05:38
11. Blue Bossa  05:04

Лог проверки качества
foobar2000 1.6.4 / Замер динамического диапазона (DR) 1.1.1
Дата отчёта:  2021-02-15 22:37:46

--------------------------------------------------------------------------------
Анализ:   MASSIMO FARAO' AFRO CUBAN PIANO QUARTET / Blue Bossa
--------------------------------------------------------------------------------

DR         Пики         RMS           Продолжительность трека
--------------------------------------------------------------------------------
DR5       -4.74 дБ   -11.46 дБ      5:28 01-South Seas
DR5       -4.74 дБ   -11.22 дБ      4:15 02-The Fall Of Love
DR6       -4.76 дБ   -11.72 дБ      3:39 03-Kelly Roll
DR5       -4.79 дБ   -11.41 дБ      8:10 04-Falling In Love With Love
DR7       -4.81 дБ   -13.77 дБ      7:06 05-But Not For Me
DR5       -4.82 дБ   -11.38 дБ      5:52 06-Theme From Mash
DR7       -4.87 дБ   -16.05 дБ      5:06 07-Not A Tear
DR7       -4.82 дБ   -14.08 дБ      8:37 08-The Way You Look Tonight
DR7       -4.76 дБ   -12.93 дБ      8:54 09-Canadian Sunset
DR6       -4.86 дБ   -12.11 дБ      5:37 10-Sunny
DR8       -4.94 дБ   -14.90 дБ      5:06 11-Blue Bossa
--------------------------------------------------------------------------------

Количество треков: 11
Реальные значения DR: DR6

Частота:  2822400 Гц / Частота PCM: 88200 Гц
Каналов:  2
Разрядность:   1
Битрейт:  5645 кбит/с
Кодек:   DSD64
================================================================================
Приватный:
Нет (DHT включён)
Размер:
2.75 Гб (2,950,995,682 байт) » файлов: 5
Участники:
0 раздают, 0 качают (0 участников всего)
Внешние участники:
9 раздают, 3 качают (12 участников всего) [ Обновить ]
No seeders - write personal message to M0p94ok. Any questions - support@pro-jazz.com.
Нет сидеров - пишите в личку M0p94ok. Есть вопросы - support@pro-jazz.com
15:34
72
Нет комментариев. Ваш будет первым!