Поиск

2017 Jimmy Scott - I Go Back Home {Eden River ERR-CD-01}

2017 Jimmy Scott - I Go Back Home {Eden River ERR-CD-01}
Стили:
Дата издания диска:
2017
Издатель (лейбл):
Номер по каталогу:
ERR-CD-01
Носитель:
CD
Битрейт аудио:
lossless
Аудиокодек:
FLAC (*.flac)
Тип рипа:
tracks+.cue
Время звучания:
59:51
Наличие сканов:
  • да
Релизёр (источник):
SERTiL

Треклист:

01. Motherless Child (feat. Joey DeFrancesco) (5:25)
02. The Nearness of You (duet with Joe Pesci) (6:41)
03. Love Letters (duet with Oscar Castro Neves) (4:13)
04. Easy Living (feat. Joey DeFrancesco) (4:19)
05. Someone To Watch Over Me (feat. Renee Olstead) (4:18)
06. How Deep Is The Ocean (feat. Kenny Barron) (5:14)
07. If I Ever Lost You (feat. Till Bronner) (5:50)
08. For Once In My Life (duet with Dee Dee Bridgewater) (5:10)
09. I Remember You (feat. Monica Mancini & Arturo Sandoval) (4:48)
10. Everybody Is Somebody's Fool (feat. James Moody) (3:58)
11. Folks Who Live On The Hill (feat. Joe Pesci) (5:01)
12. Poor Butterfly (feat. Gregoire Maret) (4:55)

Состав:
  • Kenny Barron    Featured Artist
  • Dee Dee Bridgewater    Primary Artist
  • Till Brönner    Featured Artist
  • Oscar Castro-Neves    Featured Artist
  • Joey DeFrancesco    Featured Artist
  • Monica Mancini    Featured Artist
  • Grégoire Maret    Featured Artist
  • James Moody    Featured Artist
  • Reneé Olstead    Featured Artist
  • Joe Pesci    Featured Artist
  • Arturo Sandoval    Featured Artist
  • Jimmy Scott    Primary Artist
Лог создания рипа
Exact Audio Copy V1.3 from 2. September 2016
EAC extraction logfile from 1. July 2017, 12:11
Jimmy Scott / I Go Back Home A Story About Hoping And Dreaming
Used drive : HL-DT-STDVD-RAM GH22NP21 Adapter: 1 ID: 0
Read mode : Secure
Utilize accurate stream : Yes
Defeat audio cache : Yes
Make use of C2 pointers : No
Read offset correction : 102
Overread into Lead-In and Lead-Out : No
Fill up missing offset samples with silence : Yes
Delete leading and trailing silent blocks : No
Null samples used in CRC calculations : Yes
Used interface : Native Win32 interface for Win NT & 2000
Gap handling : Appended to previous track
Used output format : User Defined Encoder
Selected bitrate : 128 kBit/s
Quality : High
Add ID3 tag : No
Command line compressor : C:\Program Files (x86)\Exact Audio Copy\Flac\flac.exe
Additional command line options : -8 -V -T "ARTIST=%artist%" -T "TITLE=%title%" -T "ALBUM=%albumtitle%" -T "DATE=%year%" -T "TRACKNUMBER=%tracknr%" -T "GENRE=%genre%" -T "PERFORMER=%albuminterpret%" -T "COMPOSER=%composer%" -T "ALBUMARTIST=%albumartist%" -T "DISCNUMBER=%cdnumber%" -T "TOTALDISCS=%totalcds%" -T "TOTALTRACKS=%numtracks%" -T "COMMENT=EAC Secure Mode, Test & Copy, AccurateRip, FLAC -8" %source% -o %dest%
TOC of the extracted CD Track | Start | Length | Start sector | End sector --------------------------------------------------------- 1 | 0:00.00 | 5:25.00 | 0 | 24374 2 | 5:25.00 | 6:40.56 | 24375 | 54430 3 | 12:05.56 | 4:12.42 | 54431 | 73372 4 | 16:18.23 | 4:18.51 | 73373 | 92773 5 | 20:36.74 | 4:17.54 | 92774 | 112102 6 | 24:54.53 | 5:14.11 | 112103 | 135663 7 | 30:08.64 | 5:49.45 | 135664 | 161883 8 | 35:58.34 | 5:09.56 | 161884 | 185114 9 | 41:08.15 | 4:48.16 | 185115 | 206730 10 | 45:56.31 | 3:57.45 | 206731 | 224550 11 | 49:54.01 | 5:01.26 | 224551 | 247151 12 | 54:55.27 | 4:55.34 | 247152 | 269310
Track 1 Filename J:\DL\Jimmy Scott - I Go Back Home (2016) [FLAC]\01 - Motherless Child (feat. Joey DeFrancesco).wav Pre-gap length 0:00:02.00 Peak level 100.0 % Extraction speed 1.5 X Track quality 99.9 % Test CRC D685071C Copy CRC D685071C Accurately ripped (confidence 2) [7965202D] (AR v2) Copy OK
Track 2 Filename J:\DL\Jimmy Scott - I Go Back Home (2016) [FLAC]\02 - The Nearness of You (duet with Joe Pesci).wav Pre-gap length 0:00:02.57 Peak level 100.0 % Extraction speed 1.9 X Track quality 100.0 % Test CRC A4FDF9CB Copy CRC A4FDF9CB Accurately ripped (confidence 2) [7FBCB905] (AR v2) Copy OK
Track 3 Filename J:\DL\Jimmy Scott - I Go Back Home (2016) [FLAC]\03 - Love Letters (duet with Oscar Castro Neves).wav Pre-gap length 0:00:02.57 Peak level 100.0 % Extraction speed 2.1 X Track quality 100.0 % Test CRC AEA6C39B Copy CRC AEA6C39B Accurately ripped (confidence 2) [A2D88501] (AR v2) Copy OK
Track 4 Filename J:\DL\Jimmy Scott - I Go Back Home (2016) [FLAC]\04 - Easy Living (feat. Joey DeFrancesco).wav Pre-gap length 0:00:02.57 Peak level 100.0 % Extraction speed 2.2 X Track quality 100.0 % Test CRC DE21A976 Copy CRC DE21A976 Accurately ripped (confidence 2) [220DB026] (AR v2) Copy OK
Track 5 Filename J:\DL\Jimmy Scott - I Go Back Home (2016) [FLAC]\05 - Someone To Watch Over Me (feat. Renee Olstead).wav Pre-gap length 0:00:02.57 Peak level 100.0 % Extraction speed 2.4 X Track quality 100.0 % Test CRC 75DF48D0 Copy CRC 75DF48D0 Accurately ripped (confidence 2) [244C81BA] (AR v2) Copy OK
Track 6 Filename J:\DL\Jimmy Scott - I Go Back Home (2016) [FLAC]\06 - How Deep Is The Ocean (feat. Kenny Barron).wav Pre-gap length 0:00:02.17 Peak level 100.0 % Extraction speed 2.6 X Track quality 100.0 % Test CRC 495B0150 Copy CRC 495B0150 Accurately ripped (confidence 2) [BFEF86A8] (AR v2) Copy OK
Track 7 Filename J:\DL\Jimmy Scott - I Go Back Home (2016) [FLAC]\07 - If I Ever Lost You (feat. Till Bronner).wav Pre-gap length 0:00:02.57 Peak level 100.0 % Extraction speed 2.5 X Track quality 99.9 % Test CRC 7C912DCE Copy CRC 7C912DCE Accurately ripped (confidence 2) [49B68012] (AR v2) Copy OK
Track 8 Filename J:\DL\Jimmy Scott - I Go Back Home (2016) [FLAC]\08 - For Once In My Life (duet with Dee Dee Bridgewater).wav Pre-gap length 0:00:03.17 Peak level 100.0 % Extraction speed 2.5 X Track quality 99.9 % Test CRC 4C32E620 Copy CRC 4C32E620 Accurately ripped (confidence 2) [0FC49372] (AR v2) Copy OK
Track 9 Filename J:\DL\Jimmy Scott - I Go Back Home (2016) [FLAC]\09 - I Remember You (feat. Monica Mancini & Arturo Sandoval).wav Pre-gap length 0:00:02.57 Peak level 100.0 % Extraction speed 2.9 X Track quality 100.0 % Test CRC 5661BC08 Copy CRC 5661BC08 Accurately ripped (confidence 2) [890CAD48] (AR v2) Copy OK
Track 10 Filename J:\DL\Jimmy Scott - I Go Back Home (2016) [FLAC]\10 - Everybody Is Somebody's Fool (feat. James Moody).wav Pre-gap length 0:00:03.37 Peak level 100.0 % Extraction speed 2.9 X Track quality 100.0 % Test CRC D4CC8318 Copy CRC D4CC8318 Accurately ripped (confidence 2) [CCB6467F] (AR v2) Copy OK
Track 11 Filename J:\DL\Jimmy Scott - I Go Back Home (2016) [FLAC]\11 - Folks Who Live On The Hill (feat. Joe Pesci).wav Pre-gap length 0:00:02.57 Peak level 100.0 % Extraction speed 3.2 X Track quality 100.0 % Test CRC 4439EDB2 Copy CRC 4439EDB2 Accurately ripped (confidence 2) [808F6935] (AR v2) Copy OK
Track 12 Filename J:\DL\Jimmy Scott - I Go Back Home (2016) [FLAC]\12 - Poor Butterfly (feat. Gregoire Maret).wav Pre-gap length 0:00:02.57 Peak level 100.0 % Extraction speed 2.9 X Track quality 99.9 % Test CRC 4B8A7282 Copy CRC 4B8A7282 Accurately ripped (confidence 2) [AF616970] (AR v2) Copy OK
All tracks accurately ripped
No errors occurred
End of status report
---- CUETools DB Plugin V2.1.6
[CTDB TOCID: 0hKMDL4zkolD4z_VRdewgluR8VE-] found
Submit result: 0hKMDL4zkolD4z_VRdewgluR8VE- has been confirmed
Track | CTDB Status 1 | (27/27) Accurately ripped 2 | (27/27) Accurately ripped 3 | (27/27) Accurately ripped 4 | (27/27) Accurately ripped 5 | (27/27) Accurately ripped 6 | (27/27) Accurately ripped 7 | (27/27) Accurately ripped 8 | (27/27) Accurately ripped 9 | (27/27) Accurately ripped 10 | (27/27) Accurately ripped 11 | (27/27) Accurately ripped 12 | (27/27) Accurately ripped
==== Log checksum 5D67A5261021D51CA226349A927EC3B5E4465BD68F86F653D34E9919796C198C ====
Содержание индексной карты (.CUE)
REM GENRE Jazz
REM DATE 2016
REM DISCID B60E060C
REM COMMENT "ExactAudioCopy v1.3"
PERFORMER "Jimmy Scott"
TITLE "I Go Back Home A Story About Hoping And Dreaming"
REM COMPOSER ""
FILE "01 - Motherless Child (feat. Joey DeFrancesco).wav" WAVE TRACK 01 AUDIO TITLE "Motherless Child (feat. Joey DeFrancesco)" PERFORMER "Jimmy Scott" REM COMPOSER "" INDEX 01 00:00:00 TRACK 02 AUDIO TITLE "The Nearness of You (duet with Joe Pesci)" PERFORMER "Jimmy Scott" REM COMPOSER "" INDEX 00 05:22:18
FILE "02 - The Nearness of You (duet with Joe Pesci).wav" WAVE INDEX 01 00:00:00 TRACK 03 AUDIO TITLE "Love Letters (duet with Oscar Castro Neves)" PERFORMER "Jimmy Scott" REM COMPOSER "" INDEX 00 06:37:74
FILE "03 - Love Letters (duet with Oscar Castro Neves).wav" WAVE INDEX 01 00:00:00 TRACK 04 AUDIO TITLE "Easy Living (feat. Joey DeFrancesco)" PERFORMER "Jimmy Scott" REM COMPOSER "" INDEX 00 04:09:60
FILE "04 - Easy Living (feat. Joey DeFrancesco).wav" WAVE INDEX 01 00:00:00 TRACK 05 AUDIO TITLE "Someone To Watch Over Me (feat. Renee Olstead)" PERFORMER "Jimmy Scott" REM COMPOSER "" INDEX 00 04:15:69
FILE "05 - Someone To Watch Over Me (feat. Renee Olstead).wav" WAVE INDEX 01 00:00:00 TRACK 06 AUDIO TITLE "How Deep Is The Ocean (feat. Kenny Barron)" PERFORMER "Jimmy Scott" REM COMPOSER "" INDEX 00 04:15:37
FILE "06 - How Deep Is The Ocean (feat. Kenny Barron).wav" WAVE INDEX 01 00:00:00 TRACK 07 AUDIO TITLE "If I Ever Lost You (feat. Till Bronner)" PERFORMER "Jimmy Scott" REM COMPOSER "" INDEX 00 05:11:29
FILE "07 - If I Ever Lost You (feat. Till Bronner).wav" WAVE INDEX 01 00:00:00 TRACK 08 AUDIO TITLE "For Once In My Life (duet with Dee Dee Bridgewater)" PERFORMER "Jimmy Scott" REM COMPOSER "" INDEX 00 05:46:28
FILE "08 - For Once In My Life (duet with Dee Dee Bridgewater).wav" WAVE INDEX 01 00:00:00 TRACK 09 AUDIO TITLE "I Remember You (feat. Monica Mancini & Arturo Sandoval)" PERFORMER "Jimmy Scott" REM COMPOSER "" INDEX 00 05:06:74
FILE "09 - I Remember You (feat. Monica Mancini & Arturo Sandoval).wav" WAVE INDEX 01 00:00:00 TRACK 10 AUDIO TITLE "Everybody Is Somebody's Fool (feat. James Moody)" PERFORMER "Jimmy Scott" REM COMPOSER "" INDEX 00 04:44:54
FILE "10 - Everybody Is Somebody's Fool (feat. James Moody).wav" WAVE INDEX 01 00:00:00 TRACK 11 AUDIO TITLE "Folks Who Live On The Hill (feat. Joe Pesci)" PERFORMER "Jimmy Scott" REM COMPOSER "" INDEX 00 03:54:63
FILE "11 - Folks Who Live On The Hill (feat. Joe Pesci).wav" WAVE INDEX 01 00:00:00 TRACK 12 AUDIO TITLE "Poor Butterfly (feat. Gregoire Maret)" PERFORMER "Jimmy Scott" REM COMPOSER "" INDEX 00 04:58:44
FILE "12 - Poor Butterfly (feat. Gregoire Maret).wav" WAVE INDEX 01 00:00:00
Приватный:
Нет (DHT включён)
Размер:
528.63 Мб (554,308,728 байт) » файлов: 32
Участники:
0 раздают, 0 качают (0 участников всего)
Внешние участники:
9 раздают, 3 качают (12 участников всего) [ Обновить ]
23:31
124
RSS
Нет комментариев. Ваш будет первым!