Вы используете незарегистрированную версию компонента "Вкладки"!

Поиск

2017 Iiro Rantala & Ulf Wakenius - Good Stuff {ACT Music} [24-96]

2017 Iiro Rantala & Ulf Wakenius - Good Stuff {ACT Music} [24-96]
Издатель (лейбл):
Доп. инфо:

Формат записи/Источник записи: [TR24][OF]
Наличие водяных знаков: Нет
Год издания/переиздания диска: 2017
Продолжительность: 44:35
Наличие сканов в содержимом раздачи: Буклет PDF

Контейнер: FLAC (*.flac)
Тип рипа: tracks
Разрядность: 24/96
Формат: PCM
Количество каналов: 2.0

Источник: highresaudio.com

Лог проверки качества
foobar2000 1.3.9 / Dynamic Range Meter 1.1.1
log date: 2019-12-31 09:33:18

--------------------------------------------------------------------------------
Analyzed: Iiro Rantala & Ulf Wakenius / Good Stuff
--------------------------------------------------------------------------------

DR         Peak         RMS     Duration Track
--------------------------------------------------------------------------------
DR10      -0.72 dB   -12.89 dB      3:32 01-Vienna
DR13      -1.40 dB   -19.44 dB      4:07 02-Carmen: Micaela & Don Jose
DR10      -0.72 dB   -12.59 dB      4:14 03-Helsinki
DR13      -0.72 dB   -17.25 dB      3:45 04-Palma
DR11      -0.72 dB   -14.20 dB      3:19 05-Seoul
DR14      -0.72 dB   -18.97 dB      3:38 06-Nessun Dorma
DR10      -0.72 dB   -13.14 dB      3:17 07-Sir Duke
DR15      -0.72 dB   -18.51 dB      3:49 08-Berlin
DR13      -0.72 dB   -17.33 dB      4:33 09-What A Wonderful World
DR11      -0.72 dB   -13.83 dB      3:49 10-Rome
DR11      -0.72 dB   -13.86 dB      2:46 11-Giant Steps
DR10      -0.72 dB   -12.13 dB      3:44 12-Love The Stuff / Ain't No Mountain High Enough
--------------------------------------------------------------------------------

Number of tracks:  12
Official DR value: DR12

Samplerate:        96000 Hz
Channels:          2
Bits per sample:   24
Bitrate:           2677 kbps
Codec:             FLAC
================================================================================
Any questions - support@pro-jazz.com. Есть вопросы - support@pro-jazz.com
11:00
243
Нет комментариев. Ваш будет первым!