Поиск

2017 Hidden Orchestra - Dawn Chorus {Tru Thoughts TRUCD343}

2017 Hidden Orchestra - Dawn Chorus {Tru Thoughts TRUCD343}
Страна-производитель диска (релиза):
UK
Дата издания диска:
2017
Номер по каталогу:
TRUCD343
Носитель:
CD
Битрейт аудио:
lossless
Аудиокодек:
FLAC (*.flac)
Тип рипа:
tracks+.cue
Время звучания:
64:48
Наличие сканов:
  • да
Релизёр (источник):
vp_sunset
Треклист:

01. First Light. 3:39
02. Western Isles. 6:13
03. Still. 6:55
04. The Lizard. 5:51
05. Long Orchard. 4:57
06. Alyth. 6:32
07. Wingbeats. 11:59
08. Serpentine. 1:06
09. Stone. 6:08
10. East London Street. 11:13

Состав:
  • — Joe Acheson / bass and electronics, composer
  • — Poppy Ackroyd / piano and violin
  • — Jamie Graham / drums
  • — Tim Lane / drums and trombone
  • Guests:
  • — Tom Lumen / live visuals
  • — Phil Cardwell / trumpet
  • — Su-a Lee / cello
  • — Fraser Fifield / whistles and saxophone
  • — Mary Macmaster / harps
  • — Tomas Dvorak / clarinet
  • — Jindrich Pavlis / clarinet
Exact Audio Copy V1.0 beta 3 from 29. August 2011
EAC extraction logfile from 21. July 2017, 21:15
Hidden Orchestra / Dawn Chorus
Used drive : ATAPI iHAS124 E Adapter: 0 ID: 0
Read mode : Secure
Utilize accurate stream : Yes
Defeat audio cache : Yes
Make use of C2 pointers : No
Read offset correction : 6
Overread into Lead-In and Lead-Out : No
Fill up missing offset samples with silence : Yes
Delete leading and trailing silent blocks : No
Null samples used in CRC calculations : Yes
Used interface : Native Win32 interface for Win NT & 2000
Gap handling : Appended to previous track
Used output format : Internal WAV Routines
Sample format : 44.100 Hz; 16 Bit; Stereo
TOC of the extracted CD Track | Start | Length | Start sector | End sector --------------------------------------------------------- 1 | 0:00.00 | 3:39.48 | 0 | 16472 2 | 3:39.48 | 6:13.35 | 16473 | 44482 3 | 9:53.08 | 6:55.58 | 44483 | 75665 4 | 16:48.66 | 5:51.69 | 75666 | 102059 5 | 22:40.60 | 4:56.71 | 102060 | 124330 6 | 27:37.56 | 6:32.14 | 124331 | 153744 7 | 34:09.70 | 11:59.65 | 153745 | 207734 8 | 46:09.60 | 1:16.11 | 207735 | 213445 9 | 47:25.71 | 6:08.00 | 213446 | 241045 10 | 53:33.71 | 11:13.59 | 241046 | 291579
Track 1 Filename C:\_EAC\01. First Light.wav Pre-gap length 0:00:02.00 Peak level 20.7 % Extraction speed 1.0 X Track quality 100.0 % Test CRC A3BCDCC4 Copy CRC A3BCDCC4 Accurately ripped (confidence 3) [9559697E] (AR v2) Copy OK
Track 2 Filename C:\_EAC\02. Western Isles.wav Peak level 96.7 % Extraction speed 1.1 X Track quality 99.9 % Test CRC FC1A66B2 Copy CRC FC1A66B2 Accurately ripped (confidence 3) [FDEF51DA] (AR v2) Copy OK
Track 3 Filename C:\_EAC\03. Still.wav Peak level 95.8 % Extraction speed 1.4 X Track quality 100.0 % Test CRC D0913FBD Copy CRC D0913FBD Accurately ripped (confidence 3) [C9245537] (AR v2) Copy OK
Track 4 Filename C:\_EAC\04. The Lizard.wav Peak level 96.5 % Extraction speed 1.4 X Track quality 99.9 % Test CRC ECDA1FC6 Copy CRC ECDA1FC6 Accurately ripped (confidence 3) [252E9459] (AR v2) Copy OK
Track 5 Filename C:\_EAC\05. Long Orchard.wav Peak level 95.9 % Extraction speed 1.6 X Track quality 100.0 % Test CRC 8FE3D335 Copy CRC 8FE3D335 Accurately ripped (confidence 3) [C780EF12] (AR v2) Copy OK
Track 6 Filename C:\_EAC\06. Alyth.wav Peak level 88.0 % Extraction speed 1.8 X Track quality 100.0 % Test CRC B2762CEB Copy CRC B2762CEB Accurately ripped (confidence 3) [35858DF0] (AR v2) Copy OK
Track 7 Filename C:\_EAC\07. Wingbeats.wav Peak level 92.1 % Extraction speed 2.0 X Track quality 100.0 % Test CRC DE57139C Copy CRC DE57139C Accurately ripped (confidence 3) [88A55906] (AR v2) Copy OK
Track 8 Filename C:\_EAC\08. Serpentine.wav Peak level 90.3 % Extraction speed 1.5 X Track quality 100.0 % Test CRC D74461B5 Copy CRC D74461B5 Accurately ripped (confidence 3) [80BFA77E] (AR v2) Copy OK
Track 9 Filename C:\_EAC\09. Stone.wav Peak level 95.8 % Extraction speed 2.1 X Track quality 100.0 % Test CRC 7C62BA32 Copy CRC 7C62BA32 Accurately ripped (confidence 3) [41693742] (AR v2) Copy OK
Track 10 Filename C:\_EAC\10. East London Street.wav Peak level 95.6 % Extraction speed 2.3 X Track quality 100.0 % Test CRC F0E9B3E2 Copy CRC F0E9B3E2 Accurately ripped (confidence 3) [4691EFA8] (AR v2) Copy OK
All tracks accurately ripped
No errors occurred
End of status report
==== Log checksum 7D6ECF11F3C99E5EB7282FF2D1B0BC66610F263C946B62235BFF29824ECA4BC8 ====
REM GENRE "Jazz Electronic"
REM DATE 2017
REM DISCID 760F2F0A
REM COMMENT "ExactAudioCopy v1.0b3"
PERFORMER "Hidden Orchestra"
TITLE "Dawn Chorus"
FILE "01. First Light.wav" WAVE TRACK 01 AUDIO TITLE "First Light" PERFORMER "Hidden Orchestra" INDEX 01 00:00:00
FILE "02. Western Isles.wav" WAVE TRACK 02 AUDIO TITLE "Western Isles" PERFORMER "Hidden Orchestra" INDEX 01 00:00:00
FILE "03. Still.wav" WAVE TRACK 03 AUDIO TITLE "Still" PERFORMER "Hidden Orchestra" INDEX 01 00:00:00
FILE "04. The Lizard.wav" WAVE TRACK 04 AUDIO TITLE "The Lizard" PERFORMER "Hidden Orchestra" INDEX 01 00:00:00
FILE "05. Long Orchard.wav" WAVE TRACK 05 AUDIO TITLE "Long Orchard" PERFORMER "Hidden Orchestra" INDEX 01 00:00:00
FILE "06. Alyth.wav" WAVE TRACK 06 AUDIO TITLE "Alyth" PERFORMER "Hidden Orchestra" INDEX 01 00:00:00
FILE "07. Wingbeats.wav" WAVE TRACK 07 AUDIO TITLE "Wingbeats" PERFORMER "Hidden Orchestra" INDEX 01 00:00:00
FILE "08. Serpentine.wav" WAVE TRACK 08 AUDIO TITLE "Serpentine" PERFORMER "Hidden Orchestra" INDEX 01 00:00:00
FILE "09. Stone.wav" WAVE TRACK 09 AUDIO TITLE "Stone" PERFORMER "Hidden Orchestra" INDEX 01 00:00:00
FILE "10. East London Street.wav" WAVE TRACK 10 AUDIO TITLE "East London Street" PERFORMER "Hidden Orchestra" INDEX 01 00:00:00
Приватный Нет (DHT включён)
Хэш 1142515F5E0C43D231A573C3DA1EDAF81B746CB1
Размер 443.31 Мб (464,842,045 байт) » файлов: 20 [ Список файлов ]
Участники 0 раздают, 0 качают (0 участников всего)
Внешние участники Нет внешних трекеров
Скорость Сейчас никто не качает
20:38
53
RSS
Нет комментариев. Ваш будет первым!