Поиск

2017 Ethan Iverson Quartet - Common Practice (Live At The Village Vanguard) (2019) {ECM} [24-96]

2017 Ethan Iverson Quartet - Common Practice (Live At The Village Vanguard) (2019) {ECM} [24-96]
Стили:
Издатель (лейбл):
Треклист:

01. The Man I Love
02. Philadelphia Creamer
03. Wee
04. I Cant Get Started
05. Sentimental Journey
06. Out Of Nowhere
07. Polka Dots And Moonbeams
08. All The Things You Are
09. Jed From Teaneck
10. Im Getting Sentimental Over You
11. I Remember You

Доп. инфо:

Формат записи/Источник записи: [TR24][OF]
Наличие водяных знаков: Нет
Год издания: 2019
Жанр: Jazz, Contemporary Jazz
Издатель (лейбл): ECM Records
Продолжительность: 01:05:50
Наличие сканов в содержимом раздачи: Буклет PDF
Контейнер: FLAC (*.flac)
Тип рипа: tracks
Разрядность: 24/96
Формат: PCM
Количество каналов: 2.0
Источник (релизер): highresaudio.com

Лог проверки качества
foobar2000 1.4 / Dynamic Range Meter 1.1.1
log date: 2019-09-21 13:35:54

--------------------------------------------------------------------------------
Analyzed: Ethan Iverson Quartet / Common Practice (Live At The Village Vanguard / 2017)
--------------------------------------------------------------------------------

DR         Peak         RMS     Duration Track
--------------------------------------------------------------------------------
DR17      -1.48 dB   -23.94 dB      6:27 01-The Man I Love (Live At The Village Vanguard / 2017)
DR15      -0.51 dB   -18.32 dB      6:00 02-Philadelphia Creamer (Live At The Village Vanguard / 2017)
DR13      -2.53 dB   -18.94 dB      5:47 03-Wee (Live At The Village Vanguard / 2017)
DR14      -2.49 dB   -22.24 dB      6:36 04-I Can’t Get Started (Live At The Village Vanguard / 2017)
DR13      -0.51 dB   -17.68 dB      4:34 05-Sentimental Journey (Live At The Village Vanguard / 2017)
DR15      -0.51 dB   -18.61 dB      6:32 06-Out Of Nowhere (Live At The Village Vanguard / 2017)
DR16      -0.93 dB   -21.86 dB      6:01 07-Polka Dots And Moonbeams (Live At The Village Vanguard / 2017)
DR16      -0.51 dB   -19.53 dB      5:52 08-All The Things You Are (Live At The Village Vanguard / 2017)
DR15      -0.51 dB   -18.56 dB      6:32 09-Jed From Teaneck (Live At The Village Vanguard / 2017)
DR15      -0.51 dB   -18.17 dB      5:11 10-I’m Getting Sentimental Over You (Live At The Village Vanguard / 2017)
DR15      -0.51 dB   -18.00 dB      6:25 11-I Remember You (Live At The Village Vanguard / 2017)
--------------------------------------------------------------------------------

Number of tracks:  11
Official DR value: DR15
Samplerate:        96000 Hz
Channels:          2
Bits per sample:   24
Bitrate:           3340 kbps
Codec:             FLAC
================================================================================
Приватный:
Нет (DHT включён)
Размер:
1.42 Гб (1,523,370,778 байт) » файлов: 14
Участники:
0 раздают, 0 качают (0 участников всего)
Внешние участники:
14 раздают, 5 качают (19 участников всего) [ Обновить ]
19:07
11
Нет комментариев. Ваш будет первым!