Поиск

2017 Eddie Daniels & Roger Kellaway - Just Friends - Live at the Village Vanguard {2xHD} [24-192]

2017 Eddie Daniels & Roger Kellaway - Just Friends - Live at the Village Vanguard {2xHD} [24-192]
Стили:
Дата записи диска:
26 ноября 1988
Место записи:
Village Vanguard, New York City, USA
Дата издания диска:
29 сентября 2017
Издатель (лейбл):
Номер по каталогу:
2XHDRE1105
Носитель:
WEB
Формат:
PCM
Тип рипа:
tracks
Контейнер:
FLAC (*.flac)
Количество каналов:
2.0
Разрядность/ЧД:
24/96
Битрейт аудио:
lossless
Время звучания:
00:58:15
Наличие сканов:
буклет pdf
Страна-производитель диска (релиза):
USA
Релизёр (источник):
M0p94ok
Доп. инфо:

Just Friends Live at the Village Vanguard - это ранее неиздававшаяся запись пианиста Роджера Келлавея (Сонни Роллинз, Стэн Гетц) и кларнетиста Эдди Дэниэлса (Джордж Бенсон, Боб Джеймс), снятая вживую в культовом джаз-клубе Greenwich Village Village Vanguard 26 ноября. 1988 - инженер и основатель Resonance Records Джордж Клабин. В том же году, когда была записана эта запись, Роджер Келлавей получил Грэмми за лучшую инструментальную аранжировку на альбоме Эдди Дэниэлса Memos from Paradise (GRP Records). Just Friends - это звездная ритм-секция басиста Бастера Уильямса и барабанщика Эла Фостера. , Wolfie s Samba), а также стандартную джазовую балладу Just Friends. Вы все еще можете услышать, как эти давние музыкальные друзья выступают вместе в клубах Нью-Йорка и за его пределами сегодня.
https://www.prostudiomasters.com/album/page/18902

https://eddiedanielsjazz.bandcamp.com/album/just-friends-live-at-the-village-vanguard

https://www.prestomusic.com/jazz/products/8434661--just-friends-live-at-the-village-vanguard

https://www.nativedsd.com/catalogue/albums/2xhdre1105-just-friends-live-at-the-village-vanguard/

https://store.acousticsounds.com/d/133711/Eddie_Daniels__Roger_Kellaway-Just_Friends_-_Live_at_the_Village_Vanguard-FLAC_96kHz24bit_Download

 

Лог проверки качества
foobar2000 1.6.2 / Dynamic Range Meter 1.1.1
log date: 2021-05-26 20:59:21

--------------------------------------------------------------------------------
Analyzed: Eddie Daniels & Roger Kellaway / Just Friends - Live at the Village Vanguard (Remastered)
--------------------------------------------------------------------------------

DR         Peak         RMS     Duration Track
--------------------------------------------------------------------------------
DR9       -5.06 dB   -17.32 dB      9:28 01-Some O' This and Some O' That
DR10      -5.34 dB   -18.98 dB      5:35 02-Reverie for a Rainy Day
DR10      -4.83 dB   -17.26 dB      9:10 03-Wolfie's Samba
DR10      -5.11 dB   -17.82 dB     17:34 04-Just Friends
DR10      -4.51 dB   -18.74 dB     16:29 05-The Spice Man
--------------------------------------------------------------------------------

Number of tracks:  5
Official DR value: DR10

Samplerate:        192000 Hz
Channels:          2
Bits per sample:   24
Bitrate:           4866 kbps
Codec:             FLAC
================================================================================
No seeders - write personal message to M0p94ok. Any questions - support@pro-jazz.com.
Нет сидеров - пишите в личку M0p94ok. Есть вопросы - support@pro-jazz.com
23:14
73
Нет комментариев. Ваш будет первым!