Поиск

2017 Ahmad Jamal - Marseille {Jazz Village JV570136}

2017 Ahmad Jamal - Marseille {Jazz Village JV570136}
Страна-производитель диска (релиза):
USA
Дата записи диска:
июль 2016
Дата издания диска:
7 июля 2017
Номер по каталогу:
JV570136
Носитель:
CD
Битрейт аудио:
lossless
Аудиокодек:
FLAC (*.flac)
Тип рипа:
tracks+.cue
Время звучания:
59:38
Треклист:

01. Marseille (Instrumental) (8:34)
02. Sometimes I Feel Like A Motherless Child (5:48)
03. Pots en verre (8:30)
04. Marseille (feat. Abd Al Malik) (7:23)
05. Autumn Leaves (8:49)
06. I Came To See You / You Were Not There (5:56)
07. Baalbeck (6:24)
08. Marseille (feat. Mina Agossi) (8:14)

Состав:
  • Mina Agossi Lyric Translation, Vocals
  • Manolo Badrena Percussion
  • Seydou Barry Executive Producer, Producer
  • James Cammack Double Bass
  • Lorna Coing Text Translation
  • Ahmad Jamal Arranger, Composer, Piano, Producer
  • Vincent Mahey Engineer, Mixing
  • Abd Al Malik Vocals
  • Herlin Riley Drums
  • Catherine Vallon-Barry Liner Notes, Producer
Лог создания рипа
X Lossless Decoder version 20161007 (149.3)
XLD extraction logfile from 2017-07-01 17:46:16 +0200
Various Artists / Marseille
Used drive : TSSTcorp CDDVDW SH-S223L (revision SB02)
Media type : Pressed CD
Ripper mode             : XLD Secure Ripper
Disable audio cache     : OK for the drive with a cache less than 1375KiB
Make use of C2 pointers : NO
Read offset correction  : 6
Max retry count         : 100
Gap status              : Analyzed, Appended (except HTOA)
TOC of the extracted CD
     Track |   Start  |  Length  | Start sector | End sector
    ---------------------------------------------------------
        1  | 00:00:00 | 08:34:07 |         0    |    38556
        2  | 08:34:07 | 05:47:71 |     38557    |    64652
        3  | 14:22:03 | 08:29:72 |     64653    |   102899
        4  | 22:52:00 | 07:23:36 |    102900    |   136160
        5  | 30:15:36 | 08:48:55 |    136161    |   175815
        6  | 39:04:16 | 05:55:63 |    175816    |   202503
        7  | 45:00:04 | 06:23:54 |    202504    |   231282
        8  | 51:23:58 | 08:14:11 |    231283    |   268343
AccurateRip Summary
    Disc not found in AccurateRip DB.
All Tracks
    Album gain               : -3.03 dB
    Peak                     : 1.000000
    Statistics
        Read error                           : 0
        Jitter error (maybe fixed)           : 0
        Retry sector count                   : 0
        Damaged sector count                 : 0
Track 01
    Filename : /FLAC Rips/Compilations - 2017 - Marseille [FLAC]/01 - Marseille (Instrumental).flac
    Pre-gap length : 00:02:00
    Track gain               : -0.73 dB
    Peak                     : 0.999725
    CRC32 hash (test run)    : 9CAB999B
    CRC32 hash               : 9CAB999B
    CRC32 hash (skip zero)   : 72828D0E
    AccurateRip v1 signature : 9A81B365
    AccurateRip v2 signature : 3EDD0880
        ->Track not present in AccurateRip database.
    Statistics
        Read error                           : 0
        Jitter error (maybe fixed)           : 0
        Retry sector count                   : 0
        Damaged sector count                 : 0
Track 02
    Filename : /FLAC Rips/Compilations - 2017 - Marseille [FLAC]/02 - Sometimes I feel like a motherless child.flac
    Track gain               : -2.50 dB
    Peak                     : 1.000000
    CRC32 hash (test run)    : F40B2669
    CRC32 hash               : F40B2669
    CRC32 hash (skip zero)   : 22DFFCA3
    AccurateRip v1 signature : E34FEFF6
    AccurateRip v2 signature : A1D07B3C
        ->Track not present in AccurateRip database.
    Statistics
        Read error                           : 0
        Jitter error (maybe fixed)           : 0
        Retry sector count                   : 0
        Damaged sector count                 : 0
Track 03
    Filename : /FLAC Rips/Compilations - 2017 - Marseille [FLAC]/03 - Pots en verre.flac
    Track gain               : -4.32 dB
    Peak                     : 1.000000
    CRC32 hash (test run)    : 5135DBFF
    CRC32 hash               : 5135DBFF
    CRC32 hash (skip zero)   : 1B8B9FAA
    AccurateRip v1 signature : 53E8886D
    AccurateRip v2 signature : 824FA3C3
        ->Track not present in AccurateRip database.
    Statistics
        Read error                           : 0
        Jitter error (maybe fixed)           : 0
        Retry sector count                   : 0
        Damaged sector count                 : 0
Track 04
    Filename : /FLAC Rips/Compilations - 2017 - Marseille [FLAC]/04 - Marseille (with Abd Al Malik).flac
    Pre-gap length : 00:02:20
    Track gain               : -3.35 dB
    Peak                     : 0.999237
    CRC32 hash (test run)    : 46200AA5
    CRC32 hash               : 46200AA5
    CRC32 hash (skip zero)   : E66A90D8
    AccurateRip v1 signature : D27B2550
    AccurateRip v2 signature : 0F1581AD
        ->Track not present in AccurateRip database.
    Statistics
        Read error                           : 0
        Jitter error (maybe fixed)           : 0
        Retry sector count                   : 0
        Damaged sector count                 : 0
Track 05
    Filename : /FLAC Rips/Compilations - 2017 - Marseille [FLAC]/05 - Autumn leaves.flac
    Pre-gap length : 00:01:55
    Track gain               : -0.15 dB
    Peak                     : 0.999573
    CRC32 hash (test run)    : 7BAA857B
    CRC32 hash               : 7BAA857B
    CRC32 hash (skip zero)   : 6BC80000
    AccurateRip v1 signature : 74764267
    AccurateRip v2 signature : BA7B5459
        ->Track not present in AccurateRip database.
    Statistics
        Read error                           : 0
        Jitter error (maybe fixed)           : 0
        Retry sector count                   : 0
        Damaged sector count                 : 0
Track 06
    Filename : /FLAC Rips/Compilations - 2017 - Marseille [FLAC]/06 - you were not there.flac
    Pre-gap length : 00:03:06
    Track gain               : -2.68 dB
    Peak                     : 0.891815
    CRC32 hash (test run)    : B2F41310
    CRC32 hash               : B2F41310
    CRC32 hash (skip zero)   : 5453E506
    AccurateRip v1 signature : 63844086
    AccurateRip v2 signature : 4B3CF992
        ->Track not present in AccurateRip database.
    Statistics
        Read error                           : 0
        Jitter error (maybe fixed)           : 0
        Retry sector count                   : 0
        Damaged sector count                 : 0
Track 07
    Filename : /FLAC Rips/Compilations - 2017 - Marseille [FLAC]/07 - Baalbeck.flac
    Pre-gap length : 00:01:25
    Track gain               : -4.48 dB
    Peak                     : 1.000000
    CRC32 hash (test run)    : 67654823
    CRC32 hash               : 67654823
    CRC32 hash (skip zero)   : C0218815
    AccurateRip v1 signature : 78D524DD
    AccurateRip v2 signature : 874CF3A5
        ->Track not present in AccurateRip database.
    Statistics
        Read error                           : 0
        Jitter error (maybe fixed)           : 0
        Retry sector count                   : 0
        Damaged sector count                 : 0
Track 08
    Filename : /FLAC Rips/Compilations - 2017 - Marseille [FLAC]/08 - Marseille (with Mina Agossi).flac
    Pre-gap length : 00:02:37
    Track gain               : -2.31 dB
    Peak                     : 0.999115
    CRC32 hash (test run)    : 8A3E7735
    CRC32 hash               : 8A3E7735
    CRC32 hash (skip zero)   : 9EB5BF67
    AccurateRip v1 signature : 77A628FA
    AccurateRip v2 signature : B8A0948D
        ->Track not present in AccurateRip database.
    Statistics
        Read error                           : 0
        Jitter error (maybe fixed)           : 0
        Retry sector count                   : 0
        Damaged sector count                 : 0
No errors occurred
End of status report
-----BEGIN XLD SIGNATURE-----
lIPn5YEUfITlVvrHSP_N9uvqPBYPjdb1YvO6Wv.X.uMV4ssojNLLBMDO2AI8jQ0f7WV_UNVRfXxQd_FlWV9uPrmiE0c5OxTKKr5M4_0
-----END XLD SIGNATURE-----
Содержание индексной карты (.CUE)
TITLE "Marseille"
CATALOG 3149027008426
REM GENRE "Jazz"
REM DATE "2017"
REM DISCNUMBER 1
REM TOTALDISCS 1
REM DISCID 6A0DF908
REM REPLAYGAIN_ALBUM_GAIN -3.03 dB
REM REPLAYGAIN_ALBUM_PEAK 1.000000
REM COMPILATION TRUE
FILE "01 - Marseille (Instrumental).flac" WAVE
  TRACK 01 AUDIO
    TITLE "Marseille (Instrumental)"
    PERFORMER "Ahmad Jamal"
    SONGWRITER "Ahmad Jamal"
    ISRC FR7JM1676010
    REM REPLAYGAIN_TRACK_GAIN -0.73 dB
    REM REPLAYGAIN_TRACK_PEAK 0.999725
    INDEX 01 00:00:00
FILE "02 - Sometimes I feel like a motherless child.flac" WAVE
  TRACK 02 AUDIO
    TITLE "Sometimes I feel like a motherless child"
    PERFORMER "Ahmad Jamal"
    SONGWRITER "Traditional"
    ISRC FR7JM1676020
    REM REPLAYGAIN_TRACK_GAIN -2.50 dB
    REM REPLAYGAIN_TRACK_PEAK 1.000000
    INDEX 01 00:00:00
FILE "03 - Pots en verre.flac" WAVE
  TRACK 03 AUDIO
    TITLE "Pots en verre"
    PERFORMER "Ahmad Jamal"
    SONGWRITER "Ahmad Jamal"
    ISRC FR7JM1676030
    REM REPLAYGAIN_TRACK_GAIN -4.32 dB
    REM REPLAYGAIN_TRACK_PEAK 1.000000
    INDEX 01 00:00:00
  TRACK 04 AUDIO
    TITLE "Marseille (with Abd Al Malik)"
    PERFORMER "Ahmad Jamal"
    SONGWRITER "Ahmad Jamal"
    ISRC FR7JM1676040
    REM REPLAYGAIN_TRACK_GAIN -3.35 dB
    REM REPLAYGAIN_TRACK_PEAK 0.999237
    INDEX 00 08:27:52
FILE "04 - Marseille (with Abd Al Malik).flac" WAVE
    INDEX 01 00:00:00
  TRACK 05 AUDIO
    TITLE "Autumn leaves"
    PERFORMER "Ahmad Jamal"
    SONGWRITER "Joseph Kosma"
    ISRC FR7JM1676050
    REM REPLAYGAIN_TRACK_GAIN -0.15 dB
    REM REPLAYGAIN_TRACK_PEAK 0.999573
    INDEX 00 07:21:56
FILE "05 - Autumn leaves.flac" WAVE
    INDEX 01 00:00:00
  TRACK 06 AUDIO
    TITLE "you were not there"
    PERFORMER "I came to see you"
    SONGWRITER "Ahmad Jamal"
    ISRC FR7JM1676060
    REM REPLAYGAIN_TRACK_GAIN -2.68 dB
    REM REPLAYGAIN_TRACK_PEAK 0.891815
    INDEX 00 08:45:49
FILE "06 - you were not there.flac" WAVE
    INDEX 01 00:00:00
  TRACK 07 AUDIO
    TITLE "Baalbeck"
    PERFORMER "Ahmad Jamal"
    SONGWRITER "Ahmad Jamal"
    ISRC FR7JM1676070
    REM REPLAYGAIN_TRACK_GAIN -4.48 dB
    REM REPLAYGAIN_TRACK_PEAK 1.000000
    INDEX 00 05:54:38
FILE "07 - Baalbeck.flac" WAVE
    INDEX 01 00:00:00
  TRACK 08 AUDIO
    TITLE "Marseille (with Mina Agossi)"
    PERFORMER "Ahmad Jamal"
    SONGWRITER "Ahmad Jamal"
    ISRC FR7JM1676080
    REM REPLAYGAIN_TRACK_GAIN -2.31 dB
    REM REPLAYGAIN_TRACK_PEAK 0.999115
    INDEX 00 06:21:17
FILE "08 - Marseille (with Mina Agossi).flac" WAVE
    INDEX 01 00:00:00
Приватный:
Нет (DHT включён)
Размер:
326.66 Мб (342,531,072 байт) » файлов: 14
Участники:
0 раздают, 0 качают (0 участников всего)
Внешние участники:
18 раздают, 6 качают (24 участников всего) [ Обновить ]
23:10
134
RSS
Нет комментариев. Ваш будет первым!