Поиск

2017 Aaron Parks, Ben Street, Billy Hart - Find The Way

2017 Aaron Parks, Ben Street, Billy Hart - Find The Way
Страна-производитель диска (релиза):
Germany
Дата издания диска:
2017
Номер по каталогу:
ECM 2489
Носитель:
CD
Битрейт аудио:
lossless
Аудиокодек:
FLAC (*.flac)
Тип рипа:
tracks+.cue
Время звучания:
50:21
Наличие сканов:
  • да
Релизёр (источник):
jlgt
Треклист:

01. Adrift [05:46]
02. Song for Sashou [06:22]
03. Unravel [04:43]
04. Hold Music [04:19]
05. The Storyteller [04:52]
06. Alice [07:09]
07. First Glance [05:41]
08. Melquiades [05:27]
09. Find The Way [05:58]

Состав:
  • Aaron Parks Piano
  • Ben Street Double Bass
  • Billy Hart Drums
Лог создания рипа
<spoiler title="Лог создания рипа"><pre>Exact Audio Copy V1.0 beta 3 from 29. August 2011
EAC extraction logfile from 4. May 2017, 21:59
Aaron Parks, Ben Street, Billy Hart / Find The Way [ECM 2489]
Used drive  : ASUS    DRW-24F1ST   a   Adapter: 0  ID: 0
Read mode               : Secure
Utilize accurate stream : Yes
Defeat audio cache      : Yes
Make use of C2 pointers : No
Read offset correction                      : 6
Overread into Lead-In and Lead-Out          : No
Fill up missing offset samples with silence : Yes
Delete leading and trailing silent blocks   : No
Null samples used in CRC calculations       : Yes
Used interface                              : Native Win32 interface for Win NT & 2000
Gap handling                                : Appended to previous track
Used output format              : User Defined Encoder
Selected bitrate                : 128 kBit/s
Quality                         : High
Add ID3 tag                     : No
Command line compressor         : C:\Program Files (x86)\Exact Audio Copy\FLAC\FLAC.EXE
Additional command line options : -8 -V -T "ARTIST=%artist%" -T "TITLE=%title%" -T "ALBUM=%albumtitle%" -T "DATE=%year%" -T "TRACKNUMBER=%tracknr%" -T "TOTALTRACKS=%numtracks%" -T "GENRE=%genre%" -T "ALBUMARTIST=%albumartist%" -T "ALBUM ARTIST=%albumartist%" -T "COMMENT=EAC Secure Mode, Test & Copy, AccurateRip, FLAC -8" %source%
TOC of the extracted CD
     Track |   Start  |  Length  | Start sector | End sector
    ---------------------------------------------------------
        1  |  0:00.00 |  5:46.60 |         0    |    26009
        2  |  5:46.60 |  6:22.01 |     26010    |    54660
        3  | 12:08.61 |  4:43.40 |     54661    |    75925
        4  | 16:52.26 |  4:19.48 |     75926    |    95398
        5  | 21:11.74 |  4:52.61 |     95399    |   117359
        6  | 26:04.60 |  7:09.43 |    117360    |   149577
        7  | 33:14.28 |  5:41.17 |    149578    |   175169
        8  | 38:55.45 |  5:27.31 |    175170    |   199725
        9  | 44:23.01 |  5:58.74 |    199726    |   226649
Track  1
     Filename K:\EAC\01 - Adrift.wav
     Pre-gap length  0:00:02.00
     Peak level 96.9 %
     Extraction speed 4.6 X
     Track quality 100.0 %
     Test CRC CC10DBF6
     Copy CRC CC10DBF6
     Track not present in AccurateRip database
     Copy OK
Track  2
     Filename K:\EAC\02 - Song for Sashou.wav
     Peak level 92.0 %
     Extraction speed 5.4 X
     Track quality 100.0 %
     Test CRC E915B423
     Copy CRC E915B423
     Track not present in AccurateRip database
     Copy OK
Track  3
     Filename K:\EAC\03 - Unravel.wav
     Peak level 73.8 %
     Extraction speed 5.2 X
     Track quality 99.9 %
     Test CRC 633B48CE
     Copy CRC 633B48CE
     Track not present in AccurateRip database
     Copy OK
Track  4
     Filename K:\EAC\04 - Hold Music.wav
     Peak level 95.9 %
     Extraction speed 6.0 X
     Track quality 100.0 %
     Test CRC 839F49CB
     Copy CRC 839F49CB
     Track not present in AccurateRip database
     Copy OK
Track  5
     Filename K:\EAC\05 - The Storyteller.wav
     Peak level 96.1 %
     Extraction speed 5.9 X
     Track quality 99.9 %
     Test CRC 159ED185
     Copy CRC 159ED185
     Track not present in AccurateRip database
     Copy OK
Track  6
     Filename K:\EAC\06 - Alice.wav
     Peak level 96.4 %
     Extraction speed 6.9 X
     Track quality 99.9 %
     Test CRC D4A60ACE
     Copy CRC D4A60ACE
     Track not present in AccurateRip database
     Copy OK
Track  7
     Filename K:\EAC\07 - First Glance.wav
     Peak level 89.9 %
     Extraction speed 7.6 X
     Track quality 100.0 %
     Test CRC 5E85DC0F
     Copy CRC 5E85DC0F
     Track not present in AccurateRip database
     Copy OK
Track  8
     Filename K:\EAC\08 - Melquiades.wav
     Peak level 96.1 %
     Extraction speed 7.9 X
     Track quality 100.0 %
     Test CRC D76F3E33
     Copy CRC D76F3E33
     Track not present in AccurateRip database
     Copy OK
Track  9
     Filename K:\EAC\09 - Find The Way.wav
     Peak level 81.3 %
     Extraction speed 8.5 X
     Track quality 100.0 %
     Test CRC 47B3E079
     Copy CRC 47B3E079
     Track not present in AccurateRip database
     Copy OK
None of the tracks are present in the AccurateRip database
No errors occurred
End of status report
==== Log checksum 1B330614BDD3FF1E1CC6EA39B9AEECDD7B813305EEDBB33378DA694A4A9280BC ====</pre></spoiler>
Содержание индексной карты (.CUE)
<spoiler title="Содержание индексной карты (.CUE)"><pre>
REM GENRE Jazz
REM DATE 2017
REM DISCID 7B0BCE09
REM COMMENT "ExactAudioCopy v1.0b3"
PERFORMER "Aaron Parks, Ben Street, Billy Hart"
TITLE "Find The Way [ECM 2489]"
FILE "01 - Adrift.wav" WAVE
  TRACK 01 AUDIO
    TITLE "Adrift"
    PERFORMER "Aaron Parks, Ben Street, Billy Hart"
    INDEX 01 00:00:00
FILE "02 - Song for Sashou.wav" WAVE
  TRACK 02 AUDIO
    TITLE "Song for Sashou"
    PERFORMER "Aaron Parks, Ben Street, Billy Hart"
    INDEX 01 00:00:00
FILE "03 - Unravel.wav" WAVE
  TRACK 03 AUDIO
    TITLE "Unravel"
    PERFORMER "Aaron Parks, Ben Street, Billy Hart"
    INDEX 01 00:00:00
FILE "04 - Hold Music.wav" WAVE
  TRACK 04 AUDIO
    TITLE "Hold Music"
    PERFORMER "Aaron Parks, Ben Street, Billy Hart"
    INDEX 01 00:00:00
FILE "05 - The Storyteller.wav" WAVE
  TRACK 05 AUDIO
    TITLE "The Storyteller"
    PERFORMER "Aaron Parks, Ben Street, Billy Hart"
    INDEX 01 00:00:00
FILE "06 - Alice.wav" WAVE
  TRACK 06 AUDIO
    TITLE "Alice"
    PERFORMER "Aaron Parks, Ben Street, Billy Hart"
    INDEX 01 00:00:00
FILE "07 - First Glance.wav" WAVE
  TRACK 07 AUDIO
    TITLE "First Glance"
    PERFORMER "Aaron Parks, Ben Street, Billy Hart"
    INDEX 01 00:00:00
FILE "08 - Melquiades.wav" WAVE
  TRACK 08 AUDIO
    TITLE "Melquiades"
    PERFORMER "Aaron Parks, Ben Street, Billy Hart"
    INDEX 01 00:00:00
FILE "09 - Find The Way.wav" WAVE
  TRACK 09 AUDIO
    TITLE "Find The Way"
    PERFORMER "Aaron Parks, Ben Street, Billy Hart"
    INDEX 01 00:00:00
</pre></spoiler>
Приватный:
Нет (DHT включён)
Размер:
326.18 Мб (342,024,062 байт) » файлов: 25
Участники:
0 раздают, 0 качают (0 участников всего)
Внешние участники:
21 раздают, 7 качают (28 участников всего) [ Обновить ]
15:11
82
RSS
Нет комментариев. Ваш будет первым!