Поиск

2016 Shirley Horn - Live At The 4 Queens {2xHD, Resonance} [DSD128]

2016 Shirley Horn - Live At The 4 Queens {2xHD, Resonance} [DSD128]
Стили:
Дата записи диска:
2 мая 1988
Место записи:
Four Queens Hotel, Las Vegas, USA
Дата издания диска:
16 сентября 2016
Издатель (лейбл):
Битрейт аудио:
lossless

Треклист:

1. Hi-Fly  06:28
2. You’d Be So Nice To Come Home To  04:01
3. Meditation (Meditação)  09:10
4. The Boy from Ipanema  05:25
5. Isn’t It Romantic?  10:12
6. Lover Man (Oh Where Can You Be?)  05:26
7. Something Happens to Me  03:21
8. Just for a Thrill  05:08
9. Blues for Big Scotia  03:10

Доп. инфо:

Формат записи/Источник записи: [DSD][OF]
Наличие водяных знаков: Нет
Год издания/переиздания диска: 2016
Продолжительность: 54:54
Наличие сканов в содержимом раздачи: Буклет PDF
Источник (релизер): nativeDSDmusic

Контейнер: DSF (*.dsf)
Тип рипа: tracks
Разрядность: 128 (5,6 MHz/1 Bit)
Формат: DSD
Количество каналов: 2.0

Лог проверки качества
foobar2000 1.5.4 / Dynamic Range Meter 1.1.1
log date: 2020-12-09 14:44:50

--------------------------------------------------------------------------------
Analyzed: Shirley Horn / Live at the 4 Queens
--------------------------------------------------------------------------------

DR         Peak         RMS     Duration Track
--------------------------------------------------------------------------------
DR14      -9.36 dB   -25.60 dB      3:22 01-Something Happens to Me
DR16      -8.75 dB   -31.15 dB      5:14 02-Lover Man (Oh Where Can You Be?)
DR13      -7.28 dB   -26.13 dB      5:10 03-Just for a Thrill
DR14      -6.91 dB   -23.61 dB      7:42 04-Hi-Fly
DR13      -7.13 dB   -24.46 dB      3:52 05-You'd Be So Nice to Come Home To
DR15     -10.74 dB   -30.76 dB      9:03 06-Meditation (Meditação)
DR14     -11.00 dB   -27.89 dB      5:22 07-The Boy from Ipanema
DR14      -8.25 dB   -25.65 dB     12:10 08-Isn’t It Romantic?
DR13     -10.48 dB   -26.67 dB      2:59 09-Blues for Big Scotia
--------------------------------------------------------------------------------

Number of tracks:  9
Official DR value: DR14

Samplerate:        5644800 Hz / PCM Samplerate: 176400 Hz
Channels:          2
Bits per sample:   1
Bitrate:           11290 kbps
Codec:             DSD128
================================================================================
Приватный:
Нет (DHT включён)
Размер:
4.37 Гб (4,694,382,481 байт) » файлов: 12
Участники:
0 раздают, 0 качают (0 участников всего)
Внешние участники:
16 раздают, 5 качают (21 участников всего) [ Обновить ]
No seeders - write personal message to M0p94ok. Нет сидеров - пишите в личку M0p94ok.
16:12
129
Нет комментариев. Ваш будет первым!