Поиск

2016 Jessica Young - When I Fall In Love {Venus} [DSD64]

2016 Jessica Young - When I Fall In Love {Venus} [DSD64]
Стили:
Издатель (лейбл):
Номер по каталогу:
VHGD-212
Битрейт аудио:
lossless
Доп. инфо:

Формат записи/Источник записи: [SACD-R][OF]
Наличие водяных знаков: Нет
Год издания/переиздания диска: 2016/2017
Продолжительность: 00:56:04
Наличие сканов в содержимом раздачи: Только обложка альбома

Контейнер: ISO (*.iso)
Тип рипа: image
Разрядность: 64(2,8 MHz/1 Bit)
Формат: DSD
Количество каналов: 2.0

Источник: venusrecords

Лог проверки качества
foobar2000 1.6.4 / Замер динамического диапазона (DR) 1.1.1
Дата отчёта:  2021-02-06 11:44:05

--------------------------------------------------------------------------------
Анализ:   JESSICA YOUNG / When I Fall In Love
--------------------------------------------------------------------------------

DR         Пики         RMS           Продолжительность трека
--------------------------------------------------------------------------------
DR6       -5.14 дБ   -13.61 дБ      5:36 01-Summertime
DR7       -5.10 дБ   -14.48 дБ      3:56 02-My Heart Belongs To Daddy
DR6       -5.14 дБ   -13.34 дБ      3:06 03-Blue Skies
DR7       -5.13 дБ   -14.39 дБ      5:17 04-You Don't Know What Love Is
DR7       -5.14 дБ   -14.64 дБ      3:01 05-They Can't Take That Away From Me
DR8       -5.10 дБ   -16.79 дБ      5:54 06-My Funny Valentine
DR7       -5.13 дБ   -14.17 дБ      5:14 07-Do Nothin' Till You Hear From Me
DR7       -5.07 дБ   -15.34 дБ      5:19 08-Bewitched
DR7       -5.16 дБ   -14.25 дБ      4:56 09-Geogia On My Mind
DR8       -5.18 дБ   -15.60 дБ      5:58 10-When I Fall In Love
DR7       -5.07 дБ   -13.82 дБ      3:44 11-Let's Fall In Love
DR6       -5.10 дБ   -13.13 дБ      4:05 12-God Bless The Child
--------------------------------------------------------------------------------

Количество треков: 12
Реальные значения DR: DR7

Частота:  2822400 Гц / Частота PCM: 352800 Гц
Каналов:  2
Разрядность:   1
Битрейт:  5645 кбит/с
Кодек:   DSD64
================================================================================
No seeders - write personal message to M0p94ok. Any questions - support@pro-jazz.com.
Нет сидеров - пишите в личку M0p94ok. Есть вопросы - support@pro-jazz.com
19:58
261
Нет комментариев. Ваш будет первым!