Поиск

2015 Matija Dedic - Matija Svira Arsena {Croatia CD 6072569}

2015 Matija Dedic - Matija Svira Arsena {Croatia CD 6072569}
Стили:
Страна-производитель диска (релиза):
Croatia
Дата издания диска:
6 ноября 2015
Издатель (лейбл):
Номер по каталогу:
CD 6072569
Носитель:
CD
Битрейт аудио:
lossless
Аудиокодек:
FLAC (*.flac)
Тип рипа:
tracks+.cue
Время звучания:
00:58:36
Наличие сканов:
  • нет
Релизёр (источник):
bNYo
Состав:
  • Matija Dedić: grand piano (1-13)
  • Massimo Savić: vocal (12)
  • Miroslav Tadić: guitar (13)

01. Glembajevi (naslovna tema)
02. Ni ti ni ja
03. U registraturi (naslovna tema)
04. U registraturi (Laura)
05. Sve što znaš o meni
06. Kuća pored mora
07. Moderato cantabile
08. Zaludu me svitovala mati
09. Tvoje nježne godine
10. Dida moj
12. Razgovor s konobarom (feat. vocal: Massimo Savić)
13. Ne Plači (feat. guitar: Miroslav Tadić)

Лог создания рипа
Exact Audio Copy V1.1 from 23. June 2015

EAC extraction logfile from 11. April 2016, 19:22

Matija Dedić / Matija svira Arsena

Used drive  : hp      DVD-RAM GH80N   Adapter: 1  ID: 0

Read mode               : Secure
Utilize accurate stream : Yes
Defeat audio cache      : No
Make use of C2 pointers : No

Combined read/write offset correction       : 0
Overread into Lead-In and Lead-Out          : No
Fill up missing offset samples with silence : Yes
Delete leading and trailing silent blocks   : No
Null samples used in CRC calculations       : Yes
Used interface                              : Native Win32 interface for Win NT & 2000
Gap handling                                : Appended to previous track

Used output format              : User Defined Encoder
Selected bitrate                : 768 kBit/s
Quality                         : High
Add ID3 tag                     : No
Command line compressor         : C:\Program Files (x86)\Exact Audio Copy\FLAC\FLAC.EXE
Additional command line options : -6 -V -T "ARTIST=%artist%" -T "TITLE=%title%" -T "ALBUM=%albumtitle%" -T "DATE=%year%" -T "TRACKNUMBER=%tracknr%" -T "GENRE=%genre%" -T "COMMENT=%comment%" -T "BAND=%albuminterpret%" -T "ALBUMARTIST=%albuminterpret%" -T "COMPOSER=%composer%" %haslyrics%--tag-from-file=LYRICS="%lyricsfile%"%haslyrics% -T "DISCNUMBER=%cdnumber%" -T "TOTALDISCS=%totalcds%" -T "TOTALTRACKS=%numtracks%" %hascover%--picture="%coverfile%"%hascover% %source% -o %dest%

TOC of the extracted CD

     Track |   Start  |  Length  | Start sector | End sector
    ---------------------------------------------------------
        1  |  0:00.00 |  6:11.00 |         0    |    27824
        2  |  6:11.00 |  4:21.49 |     27825    |    47448
        3  | 10:32.49 |  5:18.58 |     47449    |    71356
        4  | 15:51.32 |  5:47.50 |     71357    |    97431
        5  | 21:39.07 |  4:46.09 |     97432    |   118890
        6  | 26:25.16 |  6:49.40 |    118891    |   149605
        7  | 33:14.56 |  6:06.57 |    149606    |   177112
        8  | 39:21.38 |  2:50.13 |    177113    |   189875
        9  | 42:11.51 |  4:02.14 |    189876    |   208039
       10  | 46:13.65 |  3:28.56 |    208040    |   223695
       11  | 49:42.46 |  3:46.08 |    223696    |   240653
       12  | 53:28.54 |  5:06.18 |    240654    |   263621

Track  1

     Filename E:\AUDIO & VIDEO\AUDIO _ (EAC) FLAC  (Rip CD 2 FLAC)\Matija Dedić - (2015) Matija svira Arsena [Croatia Records] {FLAC}\Matija Dedić\Matija svira Arsena\01. Glembajevi (naslovna tema).wav

     Pre-gap length  0:00:02.00

     Peak level 97.2 %
     Extraction speed 3.5 X
     Track quality 100.0 %
     Test CRC C8F5C9EC
     Copy CRC C8F5C9EC
     Copy OK

Track  2

     Filename E:\AUDIO & VIDEO\AUDIO _ (EAC) FLAC  (Rip CD 2 FLAC)\Matija Dedić - (2015) Matija svira Arsena [Croatia Records] {FLAC}\Matija Dedić\Matija svira Arsena\02. Ni ti, ni ja.wav

     Pre-gap length  0:00:01.52

     Peak level 97.3 %
     Extraction speed 4.0 X
     Track quality 100.0 %
     Test CRC 2EB0C431
     Copy CRC 2EB0C431
     Copy OK

Track  3

     Filename E:\AUDIO & VIDEO\AUDIO _ (EAC) FLAC  (Rip CD 2 FLAC)\Matija Dedić - (2015) Matija svira Arsena [Croatia Records] {FLAC}\Matija Dedić\Matija svira Arsena\03. U registraturi (naslovna tema).wav

     Pre-gap length  0:00:01.19

     Peak level 96.9 %
     Extraction speed 4.3 X
     Track quality 100.0 %
     Test CRC B95338C6
     Copy CRC B95338C6
     Copy OK

Track  4

     Filename E:\AUDIO & VIDEO\AUDIO _ (EAC) FLAC  (Rip CD 2 FLAC)\Matija Dedić - (2015) Matija svira Arsena [Croatia Records] {FLAC}\Matija Dedić\Matija svira Arsena\04. U registraturi (Laura).wav

     Pre-gap length  0:00:00.52

     Peak level 98.3 %
     Extraction speed 4.8 X
     Track quality 100.0 %
     Test CRC 2A4BCCA8
     Copy CRC 2A4BCCA8
     Copy OK

Track  5

     Filename E:\AUDIO & VIDEO\AUDIO _ (EAC) FLAC  (Rip CD 2 FLAC)\Matija Dedić - (2015) Matija svira Arsena [Croatia Records] {FLAC}\Matija Dedić\Matija svira Arsena\05. Sve što znaš o meni.wav

     Pre-gap length  0:00:01.28

     Peak level 98.4 %
     Extraction speed 4.9 X
     Track quality 100.0 %
     Test CRC ED54B6DF
     Copy CRC ED54B6DF
     Copy OK

Track  6

     Filename E:\AUDIO & VIDEO\AUDIO _ (EAC) FLAC  (Rip CD 2 FLAC)\Matija Dedić - (2015) Matija svira Arsena [Croatia Records] {FLAC}\Matija Dedić\Matija svira Arsena\06. Kuća pored mora.wav

     Pre-gap length  0:00:01.14

     Peak level 97.5 %
     Extraction speed 5.4 X
     Track quality 100.0 %
     Test CRC 5F5B148B
     Copy CRC 5F5B148B
     Copy OK

Track  7

     Filename E:\AUDIO & VIDEO\AUDIO _ (EAC) FLAC  (Rip CD 2 FLAC)\Matija Dedić - (2015) Matija svira Arsena [Croatia Records] {FLAC}\Matija Dedić\Matija svira Arsena\07. Moderato cantabile.wav

     Pre-gap length  0:00:02.35

     Peak level 97.0 %
     Extraction speed 5.7 X
     Track quality 100.0 %
     Test CRC 2FE776C3
     Copy CRC 2FE776C3
     Copy OK

Track  8

     Filename E:\AUDIO & VIDEO\AUDIO _ (EAC) FLAC  (Rip CD 2 FLAC)\Matija Dedić - (2015) Matija svira Arsena [Croatia Records] {FLAC}\Matija Dedić\Matija svira Arsena\08. Zaludu me svitovala mati.wav

     Pre-gap length  0:00:02.09

     Peak level 97.2 %
     Extraction speed 5.8 X
     Track quality 100.0 %
     Test CRC D1ED6C32
     Copy CRC D1ED6C32
     Copy OK

Track  9

     Filename E:\AUDIO & VIDEO\AUDIO _ (EAC) FLAC  (Rip CD 2 FLAC)\Matija Dedić - (2015) Matija svira Arsena [Croatia Records] {FLAC}\Matija Dedić\Matija svira Arsena\09. Tvoje nježne godine.wav

     Pre-gap length  0:00:01.74

     Peak level 98.1 %
     Extraction speed 6.0 X
     Track quality 100.0 %
     Test CRC 6AE65A1E
     Copy CRC 6AE65A1E
     Copy OK

Track 10

     Filename E:\AUDIO & VIDEO\AUDIO _ (EAC) FLAC  (Rip CD 2 FLAC)\Matija Dedić - (2015) Matija svira Arsena [Croatia Records] {FLAC}\Matija Dedić\Matija svira Arsena\10. Dida moj.wav

     Pre-gap length  0:00:01.31

     Peak level 97.0 %
     Extraction speed 6.2 X
     Track quality 100.0 %
     Test CRC 36AC6575
     Copy CRC 36AC6575
     Copy OK

Track 11

     Filename E:\AUDIO & VIDEO\AUDIO _ (EAC) FLAC  (Rip CD 2 FLAC)\Matija Dedić - (2015) Matija svira Arsena [Croatia Records] {FLAC}\Matija Dedić\Matija svira Arsena\11. Razgovor s konobarom (feat. Massimo).wav

     Pre-gap length  0:00:02.47

     Peak level 97.8 %
     Extraction speed 6.4 X
     Track quality 99.9 %
     Test CRC 84FADA9B
     Copy CRC 84FADA9B
     Copy OK

Track 12

     Filename E:\AUDIO & VIDEO\AUDIO _ (EAC) FLAC  (Rip CD 2 FLAC)\Matija Dedić - (2015) Matija svira Arsena [Croatia Records] {FLAC}\Matija Dedić\Matija svira Arsena\12. Ne plači (feat. Miroslav Tadić).wav

     Pre-gap length  0:00:01.43

     Peak level 98.1 %
     Extraction speed 6.9 X
     Track quality 100.0 %
     Test CRC EDE20C45
     Copy CRC EDE20C45
     Copy OK

No errors occurred

End of status report

---- CUETools DB Plugin V2.1.6

[CTDB TOCID: z7EKEdxzisL8AhmmhGOFjw4rIr8-] found
Submit result: z7EKEdxzisL8AhmmhGOFjw4rIr8- has been confirmed
Track | CTDB Status
  1   | (6/6) Accurately ripped
  2   | (6/6) Accurately ripped
  3   | (6/6) Accurately ripped
  4   | (6/6) Accurately ripped
  5   | (6/6) Accurately ripped
  6   | (6/6) Accurately ripped
  7   | (6/6) Accurately ripped
  8   | (6/6) Accurately ripped
  9   | (6/6) Accurately ripped
 10   | (6/6) Accurately ripped
 11   | (6/6) Accurately ripped
 12   | (6/6) Accurately ripped
Содержание индексной карты (.CUE)
REM GENRE Jazz
REM DATE 2015
REM DISCID AD0DBA0C
REM COMMENT "ExactAudioCopy v1.1"
PERFORMER "Matija Dedić"
TITLE "Matija svira Arsena"
FILE "01. Glembajevi (naslovna tema).wav" WAVE
  TRACK 01 AUDIO
    TITLE "Glembajevi (naslovna tema)"
    PERFORMER "Matija Dedić"
    INDEX 01 00:00:00
FILE "02. Ni ti, ni ja.wav" WAVE
  TRACK 02 AUDIO
    TITLE "Ni ti, ni ja"
    PERFORMER "Matija Dedić"
    INDEX 00 00:00:00
    INDEX 01 00:01:52
FILE "03. U registraturi (naslovna tema).wav" WAVE
  TRACK 03 AUDIO
    TITLE "U registraturi (naslovna tema)"
    PERFORMER "Matija Dedić"
    INDEX 00 00:00:00
    INDEX 01 00:01:19
FILE "04. U registraturi (Laura).wav" WAVE
  TRACK 04 AUDIO
    TITLE "U registraturi (Laura)"
    PERFORMER "Matija Dedić"
    INDEX 00 00:00:00
    INDEX 01 00:00:52
FILE "05. Sve što znaš o meni.wav" WAVE
  TRACK 05 AUDIO
    TITLE "Sve što znaš o meni"
    PERFORMER "Matija Dedić"
    INDEX 00 00:00:00
    INDEX 01 00:01:28
FILE "06. Kuća pored mora.wav" WAVE
  TRACK 06 AUDIO
    TITLE "Kuća pored mora"
    PERFORMER "Matija Dedić"
    INDEX 00 00:00:00
    INDEX 01 00:01:14
FILE "07. Moderato cantabile.wav" WAVE
  TRACK 07 AUDIO
    TITLE "Moderato cantabile"
    PERFORMER "Matija Dedić"
    INDEX 00 00:00:00
    INDEX 01 00:02:35
FILE "08. Zaludu me svitovala mati.wav" WAVE
  TRACK 08 AUDIO
    TITLE "Zaludu me svitovala mati"
    PERFORMER "Matija Dedić"
    INDEX 00 00:00:00
    INDEX 01 00:02:09
FILE "09. Tvoje nježne godine.wav" WAVE
  TRACK 09 AUDIO
    TITLE "Tvoje nježne godine"
    PERFORMER "Matija Dedić"
    INDEX 00 00:00:00
    INDEX 01 00:01:74
FILE "10. Dida moj.wav" WAVE
  TRACK 10 AUDIO
    TITLE "Dida moj"
    PERFORMER "Matija Dedić"
    INDEX 00 00:00:00
    INDEX 01 00:01:31
FILE "11. Razgovor s konobarom (feat. Massimo).wav" WAVE
  TRACK 11 AUDIO
    TITLE "Razgovor s konobarom (feat. Massimo)"
    PERFORMER "Matija Dedić"
    INDEX 00 00:00:00
    INDEX 01 00:02:47
FILE "12. Ne plači (feat. Miroslav Tadić).wav" WAVE
  TRACK 12 AUDIO
    TITLE "Ne plači (feat. Miroslav Tadić)"
    PERFORMER "Matija Dedić"
    INDEX 00 00:00:00
    INDEX 01 00:01:43
Приватный:
Нет (DHT включён)
Размер:
199.05 Мб (208,721,439 байт) » файлов: 15
Участники:
0 раздают, 0 качают (0 участников всего)
Внешние участники:
3 раздают, 1 качают (4 участников всего) [ Обновить ]
12:14
110
RSS
Нет комментариев. Ваш будет первым!