Вы используете незарегистрированную версию компонента "Вкладки"!

Поиск

2015 Iiro Rantala - My Working Class Hero {ACT Music} [24-96]

2015 Iiro Rantala - My Working Class Hero {ACT Music} [24-96]
Издатель (лейбл):
Доп. инфо:

Формат записи/Источник записи: [TR24][OF]
Наличие водяных знаков: Нет
Год издания/переиздания диска: 2015
Продолжительность: 01:01:49
Наличие сканов в содержимом раздачи: Буклет PDF

Контейнер: FLAC (*.flac)
Тип рипа: tracks
Разрядность: 24/96
Формат: PCM
Количество каналов: 2.0

Источник: highresaudio.com

Лог проверки качества
foobar2000 1.3.9 / Dynamic Range Meter 1.1.1
log date: 2019-12-16 02:03:50

--------------------------------------------------------------------------------
Analyzed: Iiro Rantala / My Working Class Hero
--------------------------------------------------------------------------------

DR         Peak         RMS     Duration Track
--------------------------------------------------------------------------------
DR13      -0.72 dB   -17.79 dB      5:17 01-Norwegian Wood
DR11      -0.72 dB   -17.17 dB      4:48 02-Working Class Hero
DR12      -0.72 dB   -17.00 dB      6:02 03-Just Like Starting Over
DR14      -0.72 dB   -19.97 dB      4:42 04-Because
DR12      -0.72 dB   -17.14 dB      7:04 05-Woman
DR12      -0.72 dB   -18.55 dB      4:42 06-Imagine
DR11      -0.72 dB   -16.47 dB      4:42 07-Help
DR12      -0.72 dB   -17.57 dB      5:31 08-Watching The Wheels
DR11      -0.72 dB   -17.33 dB      3:39 09-Oh My Love
DR10      -0.72 dB   -16.58 dB      4:40 10-In My Life
DR9       -0.72 dB   -14.55 dB      5:59 11-Happy Xmas, War Is Over
DR10      -0.72 dB   -14.62 dB      4:43 12-All You Need Is Love
--------------------------------------------------------------------------------

Number of tracks:  12
Official DR value: DR12

Samplerate:        96000 Hz
Channels:          2
Bits per sample:   24
Bitrate:           2421 kbps
Codec:             FLAC
================================================================================
Any questions - support@pro-jazz.com. Есть вопросы - support@pro-jazz.com
12:46
371
Нет комментариев. Ваш будет первым!