Поиск

2015 George Benson - The Ultimate Collection [Deluxe Edition] (2CD) {Rhino 081227955014}

2015 George Benson - The Ultimate Collection [Deluxe Edition] (2CD) {Rhino 081227955014}
Дата издания диска:
2 марта 2015
Издатель (лейбл):
Номер по каталогу:
081227955014
Носитель:
CD
Битрейт аудио:
lossless
Аудиокодек:
FLAC (*.flac)
Тип рипа:
tracks+.cue
Время звучания:
02:36:34
Наличие сканов:
  • да
Релизёр (источник):
ruskaval

Треклист:

Disc 1 
01. Give me the night (5:04)
02. Lady love me (one more time) (4:01)
03. Never give up on a good thing (4:05)
04. Love x Love (4:45)
05. Love ballad (5:14)
06. Nature boy (4:22)
07. This masquerade (3:18)
08. On broadway (live) (5:17)
09. White rabbit (6:58)
10. Breezin' (5:39)
11. Welcome into my world (4:08)
12. What's on your mind (4:03)
13. Mimosa - with Jimmy Smith (5:49)
14. Off Broadway (5:25)
15. Gonna love you more (3:21)
16. Unchained Melody (3:53)
17. The Greatest Love of all (3:32)

Disc 2 
01. Turn your love around (3:50)
02. In your eyes (3:21)
03. Shiver (3:33)
04. Inside love (so personal) (4:14)
05. 20-20 (4:07)
06. Love all the hurt away - with Areatha Franklin (4:06)
07. Feel like making love (4:23)
08. Let's do it again (3:39)
09. The one for me (3:49)
10. Kisses in the moonlight (3:54)
11. Love will come again (6:29)
12. Nothing's gonna change my love for you (4:02)
13. Being with you (3:54)
14. Moody's Mood (3:27)
15. God bles this child -George Benson and Al Jarreau (3:40)
16. I only have eyes for you -feat. The Count Basie Orchestra (2:55)
17. Beyond the sea (la mer) (4:10)
18. When I fall in love -feat Indina Menzel (4:00)
19. When love comes calling (6:25)

Состав:
  • Patti Austin    Featured Artist
  • Count Basie Orchestra    Featured Artist
  • George Benson    Composer, Producer
  • John Burk    Producer
  • Aretha Franklin    Featured Artist
  • Jay Graydon    Composer, Producer
  • Al Jarreau    Featured Artist
  • Quincy Jones    Producer
  • Kashif    Composer, Producer
  • Chaka Khan    Featured Artist
  • David Lewis    Producer
  • Wayne Lewis    Producer
  • Tommy LiPuma    Producer
  • Arif Mardin    Composer, Producer
  • Michael Masser    Composer, Producer
  • Jean-Paul "Bluey" Maunick    Composer, Producer
  • Idina Menzel    Featured Artist
  • Jill Scott    Featured Artist
  • Jimmy Smith    Featured Artist
  • Creed Taylor    Producer
  • Russ Titelman    Producer
  • Narada Michael Walden    Composer, Producer
  • Randy Waldman    Producer
  • Charles Wallert    Producer
  • Christian John Wikane    Interviewer, Liner Notes, Research
Лог создания рипа
CD1
Exact Audio Copy V1.0 beta 3 from 29. August 2011
EAC extraction logfile from 28. March 2015, 1:51
George Benson / The Ultimate Collection (Disc 1)
Used drive : PLEXTOR DVDR PX-891SA Adapter: 4 ID: 0
Read mode : Secure
Utilize accurate stream : Yes
Defeat audio cache : Yes
Make use of C2 pointers : No
Read offset correction : 6
Overread into Lead-In and Lead-Out : No
Fill up missing offset samples with silence : Yes
Delete leading and trailing silent blocks : No
Null samples used in CRC calculations : Yes
Used interface : Native Win32 interface for Win NT & 2000
Gap handling : Appended to previous track
Used output format : User Defined Encoder
Selected bitrate : 128 kBit/s
Quality : High
Add ID3 tag : No
Command line compressor : C:\Program Files (x86)\Exact Audio Copy\FLAC\FLAC.EXE
Additional command line options : -8 -V -T "ARTIST=%artist%" -T "TITLE=%title%" -T "ALBUM=%albumtitle%" -T "DATE=%year%" -T "TRACKNUMBER=%tracknr%" -T "TOTALTRACKS=%numtracks%" -T "GENRE=%genre%" -T "ALBUMARTIST=%albumartist%" -T "ALBUM ARTIST=%albumartist%" -T "COMMENT=EAC Secure Mode, Test & Copy, AccurateRip, FLAC -8" %source%
TOC of the extracted CD Track | Start | Length | Start sector | End sector --------------------------------------------------------- 1 | 0:00.00 | 5:03.47 | 0 | 22771 2 | 5:03.47 | 4:00.45 | 22772 | 40816 3 | 9:04.17 | 4:05.21 | 40817 | 59212 4 | 13:09.38 | 4:44.42 | 59213 | 80554 5 | 17:54.05 | 5:14.20 | 80555 | 104124 6 | 23:08.25 | 4:22.10 | 104125 | 123784 7 | 27:30.35 | 3:17.43 | 123785 | 138602 8 | 30:48.03 | 5:16.58 | 138603 | 162360 9 | 36:04.61 | 6:58.05 | 162361 | 193715 10 | 43:02.66 | 5:38.48 | 193716 | 219113 11 | 48:41.39 | 4:07.69 | 219114 | 237707 12 | 52:49.33 | 4:02.63 | 237708 | 255920 13 | 56:52.21 | 5:48.52 | 255921 | 282072 14 | 62:40.73 | 5:24.44 | 282073 | 306416 15 | 68:05.42 | 3:21.23 | 306417 | 321514 16 | 71:26.65 | 3:52.71 | 321515 | 338985 17 | 75:19.61 | 3:32.20 | 338986 | 354905
Track 1 Filename L:\flac rips\01 - Give me the night.wav Pre-gap length 0:00:02.00 Peak level 96.6 % Extraction speed 2.2 X Track quality 100.0 % Test CRC BEC026E9 Copy CRC BEC026E9 Track not present in AccurateRip database Copy OK
Track 2 Filename L:\flac rips\02 - Lady love me (one more time).wav Pre-gap length 0:00:00.60 Peak level 96.6 % Extraction speed 2.4 X Track quality 100.0 % Test CRC 60C6140D Copy CRC 60C6140D Track not present in AccurateRip database Copy OK
Track 3 Filename L:\flac rips\03 - Never give up on a good thing.wav Pre-gap length 0:00:00.62 Peak level 96.6 % Extraction speed 2.6 X Track quality 100.0 % Test CRC F7D50C57 Copy CRC F7D50C57 Track not present in AccurateRip database Copy OK
Track 4 Filename L:\flac rips\04 - Love x Love.wav Pre-gap length 0:00:00.54 Peak level 96.6 % Extraction speed 2.8 X Track quality 100.0 % Test CRC E375F403 Copy CRC E375F403 Track not present in AccurateRip database Copy OK
Track 5 Filename L:\flac rips\05 - Love ballad.wav Pre-gap length 0:00:00.37 Peak level 96.6 % Extraction speed 3.0 X Track quality 100.0 % Test CRC D11045FF Copy CRC D11045FF Track not present in AccurateRip database Copy OK
Track 6 Filename L:\flac rips\06 - Nature boy.wav Pre-gap length 0:00:00.34 Peak level 96.6 % Extraction speed 3.2 X Track quality 100.0 % Test CRC 6BE4E11F Copy CRC 6BE4E11F Track not present in AccurateRip database Copy OK
Track 7 Filename L:\flac rips\07 - This masquerade.wav Pre-gap length 0:00:01.35 Peak level 96.6 % Extraction speed 3.1 X Track quality 100.0 % Test CRC 955FE31A Copy CRC 955FE31A Track not present in AccurateRip database Copy OK
Track 8 Filename L:\flac rips\08 - On broadway (live).wav Pre-gap length 0:00:00.49 Peak level 96.3 % Extraction speed 3.5 X Track quality 100.0 % Test CRC 66F72412 Copy CRC 66F72412 Track not present in AccurateRip database Copy OK
Track 9 Filename L:\flac rips\09 - White rabbit.wav Pre-gap length 0:00:01.08 Peak level 92.8 % Extraction speed 3.8 X Track quality 100.0 % Test CRC 16D71A47 Copy CRC 16D71A47 Track not present in AccurateRip database Copy OK
Track 10 Filename L:\flac rips\10 - Breezin'.wav Pre-gap length 0:00:00.65 Peak level 96.6 % Extraction speed 3.1 X Track quality 99.9 % Test CRC A9F5B55B Copy CRC A9F5B55B Track not present in AccurateRip database Copy OK
Track 11 Filename L:\flac rips\11 - Welcome into my world.wav Pre-gap length 0:00:00.30 Peak level 96.6 % Extraction speed 3.9 X Track quality 100.0 % Test CRC B39BB550 Copy CRC B39BB550 Track not present in AccurateRip database Copy OK
Track 12 Filename L:\flac rips\12 - What's on your mind.wav Pre-gap length 0:00:00.22 Peak level 96.6 % Extraction speed 4.0 X Track quality 100.0 % Test CRC E1D89FDE Copy CRC E1D89FDE Track not present in AccurateRip database Copy OK
Track 13 Filename L:\flac rips\13 - Mimosa - with Jimmy Smith.wav Pre-gap length 0:00:00.68 Peak level 96.6 % Extraction speed 4.3 X Track quality 100.0 % Test CRC 70B062E8 Copy CRC 70B062E8 Track not present in AccurateRip database Copy OK
Track 14 Filename L:\flac rips\14 - Off Broadway.wav Pre-gap length 0:00:01.02 Peak level 96.6 % Extraction speed 4.5 X Track quality 100.0 % Test CRC F1E2C7CE Copy CRC F1E2C7CE Track not present in AccurateRip database Copy OK
Track 15 Filename L:\flac rips\15 - Gonna love you more.wav Pre-gap length 0:00:00.71 Peak level 96.6 % Extraction speed 4.2 X Track quality 100.0 % Test CRC 9A04B3A8 Copy CRC 9A04B3A8 Track not present in AccurateRip database Copy OK
Track 16 Filename L:\flac rips\16 - Unchained Melody.wav Pre-gap length 0:00:00.50 Peak level 96.6 % Extraction speed 4.5 X Track quality 100.0 % Test CRC 10499AE1 Copy CRC 10499AE1 Track not present in AccurateRip database Copy OK
Track 17 Filename L:\flac rips\17 - The Greatest Love of all.wav Pre-gap length 0:00:00.16 Peak level 95.5 % Extraction speed 4.4 X Track quality 100.0 % Test CRC 3BB7583B Copy CRC 3BB7583B Track not present in AccurateRip database Copy OK
None of the tracks are present in the AccurateRip database
No errors occurred
End of status report
==== Log checksum 56C5466A601FECC5F9215B263683D931C7453B0AA0264B2A824D06CAF1685CC0 ====
CD2
Exact Audio Copy V1.0 beta 3 from 29. August 2011
EAC extraction logfile from 28. March 2015, 2:20
George Benson / The Ultimate Collection (Disc 2)
Used drive : PLEXTOR DVDR PX-891SA Adapter: 4 ID: 0
Read mode : Secure
Utilize accurate stream : Yes
Defeat audio cache : Yes
Make use of C2 pointers : No
Read offset correction : 6
Overread into Lead-In and Lead-Out : No
Fill up missing offset samples with silence : Yes
Delete leading and trailing silent blocks : No
Null samples used in CRC calculations : Yes
Used interface : Native Win32 interface for Win NT & 2000
Gap handling : Appended to previous track
Used output format : User Defined Encoder
Selected bitrate : 128 kBit/s
Quality : High
Add ID3 tag : No
Command line compressor : C:\Program Files (x86)\Exact Audio Copy\FLAC\FLAC.EXE
Additional command line options : -8 -V -T "ARTIST=%artist%" -T "TITLE=%title%" -T "ALBUM=%albumtitle%" -T "DATE=%year%" -T "TRACKNUMBER=%tracknr%" -T "TOTALTRACKS=%numtracks%" -T "GENRE=%genre%" -T "ALBUMARTIST=%albumartist%" -T "ALBUM ARTIST=%albumartist%" -T "COMMENT=EAC Secure Mode, Test & Copy, AccurateRip, FLAC -8" %source%
TOC of the extracted CD Track | Start | Length | Start sector | End sector --------------------------------------------------------- 1 | 0:00.00 | 3:50.31 | 0 | 17280 2 | 3:50.31 | 3:21.11 | 17281 | 32366 3 | 7:11.42 | 3:33.33 | 32367 | 48374 4 | 10:45.00 | 4:14.35 | 48375 | 67459 5 | 14:59.35 | 4:06.62 | 67460 | 85971 6 | 19:06.22 | 4:06.11 | 85972 | 104432 7 | 23:12.33 | 4:23.17 | 104433 | 124174 8 | 27:35.50 | 3:39.22 | 124175 | 140621 9 | 31:14.72 | 3:48.69 | 140622 | 157790 10 | 35:03.66 | 3:54.29 | 157791 | 175369 11 | 38:58.20 | 6:29.04 | 175370 | 204548 12 | 45:27.24 | 4:01.57 | 204549 | 222680 13 | 49:29.06 | 3:53.57 | 222681 | 240212 14 | 53:22.63 | 3:26.51 | 240213 | 255713 15 | 56:49.39 | 3:39.61 | 255714 | 272199 16 | 60:29.25 | 2:54.50 | 272200 | 285299 17 | 63:24.00 | 4:10.31 | 285300 | 304080 18 | 67:34.31 | 4:00.32 | 304081 | 322112 19 | 71:34.63 | 6:25.34 | 322113 | 351021
Track 1 Filename L:\flac rips\01 - Turn your love around.wav Pre-gap length 0:00:02.00 Peak level 96.6 % Extraction speed 4.8 X Track quality 99.9 % Test CRC 9DE8B4DA Copy CRC 9DE8B4DA Track not present in AccurateRip database Copy OK
Track 2 Filename L:\flac rips\02 - In your eyes.wav Pre-gap length 0:00:00.73 Peak level 94.8 % Extraction speed 5.0 X Track quality 99.9 % Test CRC A40446B9 Copy CRC A40446B9 Track not present in AccurateRip database Copy OK
Track 3 Filename L:\flac rips\03 - Shiver.wav Pre-gap length 0:00:00.53 Peak level 96.6 % Extraction speed 5.4 X Track quality 99.9 % Test CRC 84D46339 Copy CRC 84D46339 Track not present in AccurateRip database Copy OK
Track 4 Filename L:\flac rips\04 - Inside love (so personal).wav Pre-gap length 0:00:00.10 Peak level 96.1 % Extraction speed 7.3 X Track quality 100.0 % Test CRC B9C9F92F Copy CRC B9C9F92F Track not present in AccurateRip database Copy OK
Track 5 Filename L:\flac rips\05 - 20-20.wav Pre-gap length 0:00:00.27 Peak level 96.0 % Extraction speed 7.7 X Track quality 100.0 % Test CRC 67AC2A23 Copy CRC 67AC2A23 Track not present in AccurateRip database Copy OK
Track 6 Filename L:\flac rips\06 - Love all the hurt away - with Areatha Franklin.wav Pre-gap length 0:00:00.63 Peak level 96.6 % Extraction speed 8.1 X Track quality 100.0 % Test CRC F8948282 Copy CRC F8948282 Track not present in AccurateRip database Copy OK
Track 7 Filename L:\flac rips\07 - Feel like making love.wav Pre-gap length 0:00:00.54 Peak level 96.6 % Extraction speed 8.6 X Track quality 100.0 % Test CRC D0DA677E Copy CRC D0DA677E Track not present in AccurateRip database Copy OK
Track 8 Filename L:\flac rips\08 - Let's do it again.wav Pre-gap length 0:00:00.16 Peak level 96.6 % Extraction speed 8.8 X Track quality 100.0 % Test CRC 60DEB61B Copy CRC 60DEB61B Track not present in AccurateRip database Copy OK
Track 9 Filename L:\flac rips\09 - The one for me.wav Pre-gap length 0:00:00.44 Peak level 93.7 % Extraction speed 9.1 X Track quality 100.0 % Test CRC DD793E43 Copy CRC DD793E43 Track not present in AccurateRip database Copy OK
Track 10 Filename L:\flac rips\10 - Kisses in the moonlight.wav Pre-gap length 0:00:00.51 Peak level 96.6 % Extraction speed 7.7 X Track quality 99.9 % Test CRC B5EF0AED Copy CRC B5EF0AED Track not present in AccurateRip database Copy OK
Track 11 Filename L:\flac rips\11 - Love will come again.wav Pre-gap length 0:00:01.01 Peak level 96.6 % Extraction speed 10.4 X Track quality 100.0 % Test CRC D2E90DA7 Copy CRC D2E90DA7 Track not present in AccurateRip database Copy OK
Track 12 Filename L:\flac rips\12 - Nothing's gonna change my love for you.wav Pre-gap length 0:00:00.55 Peak level 96.6 % Extraction speed 10.3 X Track quality 100.0 % Test CRC 6B834E49 Copy CRC 6B834E49 Track not present in AccurateRip database Copy OK
Track 13 Filename L:\flac rips\13 - Being with you.wav Pre-gap length 0:00:00.56 Peak level 93.8 % Extraction speed 10.5 X Track quality 100.0 % Test CRC AFBE69FD Copy CRC AFBE69FD Track not present in AccurateRip database Copy OK
Track 14 Filename L:\flac rips\14 - Moody's Mood.wav Pre-gap length 0:00:00.37 Peak level 96.6 % Extraction speed 10.7 X Track quality 100.0 % Test CRC F07EF6A3 Copy CRC F07EF6A3 Track not present in AccurateRip database Copy OK
Track 15 Filename L:\flac rips\15 - God bles this child -George Benson and Al Jarreau.wav Pre-gap length 0:00:01.37 Peak level 93.2 % Extraction speed 10.9 X Track quality 100.0 % Test CRC 1C9921F0 Copy CRC 1C9921F0 Track not present in AccurateRip database Copy OK
Track 16 Filename L:\flac rips\16 - I only have eyes for you -feat. The Count Basie Orchestra.wav Pre-gap length 0:00:00.52 Peak level 96.6 % Extraction speed 10.8 X Track quality 100.0 % Test CRC 85A18994 Copy CRC 85A18994 Track not present in AccurateRip database Copy OK
Track 17 Filename L:\flac rips\17 - Beyond the sea (la mer).wav Pre-gap length 0:00:00.22 Peak level 96.6 % Extraction speed 11.6 X Track quality 100.0 % Test CRC 44B69DA7 Copy CRC 44B69DA7 Track not present in AccurateRip database Copy OK
Track 18 Filename L:\flac rips\18 - When I fall in love -feat Indina Menzel.wav Pre-gap length 0:00:00.31 Peak level 96.6 % Extraction speed 11.8 X Track quality 100.0 % Test CRC 069CCA20 Copy CRC 069CCA20 Track not present in AccurateRip database Copy OK
Track 19 Filename L:\flac rips\19 - When love comes calling.wav Pre-gap length 0:00:00.29 Peak level 96.6 % Extraction speed 11.1 X Track quality 99.9 % Test CRC 4B80306A Copy CRC 4B80306A Track not present in AccurateRip database Copy OK
None of the tracks are present in the AccurateRip database
No errors occurred
End of status report
==== Log checksum 98AF7139E2AD2D10065E667D6233BB3577DE1A70F968324D8E55D8244641A295 ====
Содержание индексной карты (.CUE)
CD1
REM GENRE Soul
REM DATE 2015
REM DISCID F2127C11
REM COMMENT "ExactAudioCopy v1.0b3"
PERFORMER "George Benson"
TITLE "The Ultimate Collection (Disc 1)"
FILE "01 - Give me the night.wav" WAVE TRACK 01 AUDIO TITLE "Give me the night" PERFORMER "George Benson" INDEX 01 00:00:00 TRACK 02 AUDIO TITLE "Lady love me (one more time)" PERFORMER "George Benson" INDEX 00 05:02:62
FILE "02 - Lady love me (one more time).wav" WAVE INDEX 01 00:00:00 TRACK 03 AUDIO TITLE "Never give up on a good thing" PERFORMER "George Benson" INDEX 00 03:59:58
FILE "03 - Never give up on a good thing.wav" WAVE INDEX 01 00:00:00 TRACK 04 AUDIO TITLE "Love x Love" PERFORMER "George Benson" INDEX 00 04:04:42
FILE "04 - Love x Love.wav" WAVE INDEX 01 00:00:00 TRACK 05 AUDIO TITLE "Love ballad" PERFORMER "George Benson" INDEX 00 04:44:05
FILE "05 - Love ballad.wav" WAVE INDEX 01 00:00:00 TRACK 06 AUDIO TITLE "Nature boy" PERFORMER "George Benson" INDEX 00 05:13:61
FILE "06 - Nature boy.wav" WAVE INDEX 01 00:00:00 TRACK 07 AUDIO TITLE "This masquerade" PERFORMER "George Benson" INDEX 00 04:20:50
FILE "07 - This masquerade.wav" WAVE INDEX 01 00:00:00 TRACK 08 AUDIO TITLE "On broadway (live)" PERFORMER "George Benson" INDEX 00 03:16:69
FILE "08 - On broadway (live).wav" WAVE INDEX 01 00:00:00 TRACK 09 AUDIO TITLE "White rabbit" PERFORMER "George Benson" INDEX 00 05:15:50
FILE "09 - White rabbit.wav" WAVE INDEX 01 00:00:00 TRACK 10 AUDIO TITLE "Breezin'" PERFORMER "George Benson" INDEX 00 06:57:15
FILE "10 - Breezin'.wav" WAVE INDEX 01 00:00:00 TRACK 11 AUDIO TITLE "Welcome into my world" PERFORMER "George Benson" INDEX 00 05:38:18
FILE "11 - Welcome into my world.wav" WAVE INDEX 01 00:00:00 TRACK 12 AUDIO TITLE "What's on your mind" PERFORMER "George Benson" INDEX 00 04:07:47
FILE "12 - What's on your mind.wav" WAVE INDEX 01 00:00:00 TRACK 13 AUDIO TITLE "Mimosa - with Jimmy Smith" PERFORMER "George Benson" INDEX 00 04:01:70
FILE "13 - Mimosa - with Jimmy Smith.wav" WAVE INDEX 01 00:00:00 TRACK 14 AUDIO TITLE "Off Broadway" PERFORMER "George Benson" INDEX 00 05:47:50
FILE "14 - Off Broadway.wav" WAVE INDEX 01 00:00:00 TRACK 15 AUDIO TITLE "Gonna love you more" PERFORMER "George Benson" INDEX 00 05:23:48
FILE "15 - Gonna love you more.wav" WAVE INDEX 01 00:00:00 TRACK 16 AUDIO TITLE "Unchained Melody" PERFORMER "George Benson" INDEX 00 03:20:48
FILE "16 - Unchained Melody.wav" WAVE INDEX 01 00:00:00 TRACK 17 AUDIO TITLE "The Greatest Love of all" PERFORMER "George Benson" INDEX 00 03:52:55
FILE "17 - The Greatest Love of all.wav" WAVE INDEX 01 00:00:00
CD2
REM GENRE Soul
REM DATE 2015
REM DISCID 03124813
REM COMMENT "ExactAudioCopy v1.0b3"
PERFORMER "George Benson"
TITLE "The Ultimate Collection (Disc 2)"
FILE "01 - Turn your love around.wav" WAVE TRACK 01 AUDIO TITLE "Turn your love around" PERFORMER "George Benson" INDEX 01 00:00:00 TRACK 02 AUDIO TITLE "In your eyes" PERFORMER "George Benson" INDEX 00 03:49:33
FILE "02 - In your eyes.wav" WAVE INDEX 01 00:00:00 TRACK 03 AUDIO TITLE "Shiver" PERFORMER "George Benson" INDEX 00 03:20:33
FILE "03 - Shiver.wav" WAVE INDEX 01 00:00:00 TRACK 04 AUDIO TITLE "Inside love (so personal)" PERFORMER "George Benson" INDEX 00 03:33:23
FILE "04 - Inside love (so personal).wav" WAVE INDEX 01 00:00:00 TRACK 05 AUDIO TITLE "20-20" PERFORMER "George Benson" INDEX 00 04:14:08
FILE "05 - 20-20.wav" WAVE INDEX 01 00:00:00 TRACK 06 AUDIO TITLE "Love all the hurt away - with Areatha Franklin" PERFORMER "George Benson" INDEX 00 04:05:74
FILE "06 - Love all the hurt away - with Areatha Franklin.wav" WAVE INDEX 01 00:00:00 TRACK 07 AUDIO TITLE "Feel like making love" PERFORMER "George Benson" INDEX 00 04:05:32
FILE "07 - Feel like making love.wav" WAVE INDEX 01 00:00:00 TRACK 08 AUDIO TITLE "Let's do it again" PERFORMER "George Benson" INDEX 00 04:23:01
FILE "08 - Let's do it again.wav" WAVE INDEX 01 00:00:00 TRACK 09 AUDIO TITLE "The one for me" PERFORMER "George Benson" INDEX 00 03:38:53
FILE "09 - The one for me.wav" WAVE INDEX 01 00:00:00 TRACK 10 AUDIO TITLE "Kisses in the moonlight" PERFORMER "George Benson" INDEX 00 03:48:18
FILE "10 - Kisses in the moonlight.wav" WAVE INDEX 01 00:00:00 TRACK 11 AUDIO TITLE "Love will come again" PERFORMER "George Benson" INDEX 00 03:53:28
FILE "11 - Love will come again.wav" WAVE INDEX 01 00:00:00 TRACK 12 AUDIO TITLE "Nothing's gonna change my love for you" PERFORMER "George Benson" INDEX 00 06:28:24
FILE "12 - Nothing's gonna change my love for you.wav" WAVE INDEX 01 00:00:00 TRACK 13 AUDIO TITLE "Being with you" PERFORMER "George Benson" INDEX 00 04:01:01
FILE "13 - Being with you.wav" WAVE INDEX 01 00:00:00 TRACK 14 AUDIO TITLE "Moody's Mood" PERFORMER "George Benson" INDEX 00 03:53:20
FILE "14 - Moody's Mood.wav" WAVE INDEX 01 00:00:00 TRACK 15 AUDIO TITLE "God bles this child -George Benson and Al Jarreau" PERFORMER "George Benson" INDEX 00 03:25:14
FILE "15 - God bles this child -George Benson and Al Jarreau.wav" WAVE INDEX 01 00:00:00 TRACK 16 AUDIO TITLE "I only have eyes for you -feat. The Count Basie Orchestra" PERFORMER "George Benson" INDEX 00 03:39:09
FILE "16 - I only have eyes for you -feat. The Count Basie Orchestra.wav" WAVE INDEX 01 00:00:00 TRACK 17 AUDIO TITLE "Beyond the sea (la mer)" PERFORMER "George Benson" INDEX 00 02:54:28
FILE "17 - Beyond the sea (la mer).wav" WAVE INDEX 01 00:00:00 TRACK 18 AUDIO TITLE "When I fall in love -feat Indina Menzel" PERFORMER "George Benson" INDEX 00 04:10:00
FILE "18 - When I fall in love -feat Indina Menzel.wav" WAVE INDEX 01 00:00:00 TRACK 19 AUDIO TITLE "When love comes calling" PERFORMER "George Benson" INDEX 00 04:00:03
FILE "19 - When love comes calling.wav" WAVE INDEX 01 00:00:00
Приватный:
Нет (DHT включён)
Размер:
1.09 Гб (1,175,322,173 байт) » файлов: 52
Участники:
0 раздают, 0 качают (0 участников всего)
Внешние участники:
5 раздают, 1 качают (6 участников всего) [ Обновить ]
16:08
56
RSS
Нет комментариев. Ваш будет первым!