Вы используете незарегистрированную версию компонента "Вкладки"!

Поиск

2014 Ron Miles - Circuit Rider {Yellowbird YEB7745} [24-88,2]

2014 Ron Miles - Circuit Rider {Yellowbird YEB7745} [24-88,2]
Дата записи диска:
29-30 октября 2013
Место записи:
Mighty Fine Productions, Denver, CO
Дата издания диска:
14 октября 2014
Номер по каталогу:
YEB7745
Носитель:
WEB
Формат:
PCM
Тип рипа:
tracks+.cue
Контейнер:
FLAC (*.flac)
Количество каналов:
2.0
Разрядность/ЧД:
24/88,2
Битрейт аудио:
lossless
Время звучания:
00:56:39
Наличие сканов:
нет
Страна-производитель диска (релиза):
USA
Релизёр (источник):
M0p94ok
Лог проверки качества
foobar2000 1.5.5 / Dynamic Range Meter 1.1.1
log date: 2020-09-27 10:41:20

--------------------------------------------------------------------------------
Analyzed: Ron Miles / Circuit Rider
--------------------------------------------------------------------------------

DR         Peak         RMS     Duration Track
--------------------------------------------------------------------------------
DR10      -0.17 dB   -13.51 dB      9:07 01-Comma (feat. Bill Frisell & Brian Blade)
DR10      -0.17 dB   -12.16 dB      6:56 02-Jive Five (feat. Bill Frisell & Brian Blade)
DR10      -0.17 dB   -12.67 dB      5:00 03-The Flesh Is Weak (feat. Bill Frisell & Brian Blade)
DR12      -0.17 dB   -16.11 dB      8:50 04-Dancing Close and Slow (feat. Bill Frisell & Brian Blade)
DR11      -0.17 dB   -13.43 dB      4:56 05-Circuit Rider (feat. Bill Frisell & Brian Blade)
DR10      -0.17 dB   -12.68 dB      7:07 06-Reincarnation of a Lovebird (feat. Bill Frisell & Brian Blade)
DR10      -0.17 dB   -11.96 dB      5:05 07-Angelina (feat. Bill Frisell & Brian Blade)
DR11      -0.17 dB   -15.12 dB      9:41 08-Two Kinds of Blues (feat. Bill Frisell & Brian Blade)
--------------------------------------------------------------------------------

Number of tracks:  8
Official DR value: DR11

Samplerate:        88200 Hz
Channels:          2
Bits per sample:   24
Bitrate:           2640 kbps
Codec:             FLAC
================================================================================
Any questions - support@pro-jazz.com. Есть вопросы - support@pro-jazz.com
10:59
256
Нет комментариев. Ваш будет первым!