Поиск

2014 John Zorn - The Hermetic Organ, Vol. 2: St. Paul's Chapel, NYC {Tzadik TZ 8312} [CD]

2014 John Zorn - The Hermetic Organ, Vol. 2: St. Paul's Chapel, NYC {Tzadik TZ 8312} [CD]
Треклист:

1 I. Crucifixion 6:55
2 II. Prayer 9:12
3 III. Ascent Into The Maelstrom 4:34
4 IV. In Gloria Dei 11:28
5 V. Holy Spirit 7:17
6 VI. Battle Of The Angels 3:16
7 VII. Communion 4:21

Жанр: Post-Modern, Improvisation
Носитель: CD
Страна-производитель диска (релиза): US
Год издания: 2014
Издатель (лейбл): Tzadik
Номер по каталогу: TZ 8312
Аудиокодек: FLAC (*.flac)
Тип рипа: tracks+.cue
Битрейт аудио: lossless
Продолжительность: 00:47:01
Источник: локальная сеть
Наличие сканов в содержимом раздачи: нет

Лог создания рипа
Exact Audio Copy V1.0 beta 3 from 29. August 2011

EAC extraction logfile from 31. January 2014, 20:37

John Zorn / The Hermetic Organ vol. 2 - St. Paul's Chapel

Used drive  : ASUS    DRW-24B1ST   c   Adapter: 5  ID: 0

Read mode               : Secure
Utilize accurate stream : Yes
Defeat audio cache      : Yes
Make use of C2 pointers : No

Read offset correction                      : 6
Overread into Lead-In and Lead-Out          : No
Fill up missing offset samples with silence : Yes
Delete leading and trailing silent blocks   : No
Null samples used in CRC calculations       : Yes
Used interface                              : Native Win32 interface for Win NT & 2000
Gap handling                                : Appended to previous track

Used output format              : User Defined Encoder
Selected bitrate                : 128 kBit/s
Quality                         : High
Add ID3 tag                     : Yes
Command line compressor         : C:\Users\Jared\FLAC\flac.exe
Additional command line options : -8 -V -T "ARTIST=%artist%" -T "TITLE=%title%" -T "ALBUM=%albumtitle%" -T "DATE=%year%" -T "TRACKNUMBER=%tracknr%" -T "GENRE=%genre%" -T "PERFORMER=%albuminterpret%" -T "COMPOSER=%composer%" %haslyrics%--tag-from-file=LYRICS="%lyricsfile%"%haslyrics% -T "ALBUMARTIST=%albumartist%" -T "DISCNUMBER=%cdnumber%" -T "TOTALDISCS=%totalcds%" -T "TOTALTRACKS=%numtracks%" -T "COMMENT=%comment%" %source% -o %dest%

TOC of the extracted CD

     Track |   Start  |  Length  | Start sector | End sector
    ---------------------------------------------------------
        1  |  0:00.00 |  6:55.18 |         0    |    31142
        2  |  6:55.18 |  9:12.29 |     31143    |    72571
        3  | 16:07.47 |  4:33.58 |     72572    |    93104
        4  | 20:41.30 | 11:28.05 |     93105    |   144709
        5  | 32:09.35 |  7:17.20 |    144710    |   177504
        6  | 39:26.55 |  3:15.70 |    177505    |   192199
        7  | 42:42.50 |  4:21.18 |    192200    |   211792

Track  1

     Filename Z:\EAC\01 - Crucifixion.wav

     Pre-gap length  0:00:02.00

     Peak level 85.1 %
     Extraction speed 2.0 X
     Track quality 100.0 %
     Test CRC C6D3DB3F
     Copy CRC C6D3DB3F
     Track not present in AccurateRip database
     Copy OK

Track  2

     Filename Z:\EAC\02 - Prayer.wav

     Peak level 38.9 %
     Extraction speed 2.5 X
     Track quality 100.0 %
     Test CRC 32588F16
     Copy CRC 32588F16
     Track not present in AccurateRip database
     Copy OK

Track  3

     Filename Z:\EAC\03 - Ascent into the Maelstrom.wav

     Peak level 98.9 %
     Extraction speed 2.6 X
     Track quality 100.0 %
     Test CRC FC8C9A17
     Copy CRC FC8C9A17
     Track not present in AccurateRip database
     Copy OK

Track  4

     Filename Z:\EAC\04 - In Gloria Dei.wav

     Peak level 85.0 %
     Extraction speed 3.1 X
     Track quality 100.0 %
     Test CRC 01126A39
     Copy CRC 01126A39
     Track not present in AccurateRip database
     Copy OK

Track  5

     Filename Z:\EAC\05 - Holy Spirit.wav

     Peak level 33.6 %
     Extraction speed 2.8 X
     Track quality 99.9 %
     Test CRC 2103995D
     Copy CRC 2103995D
     Track not present in AccurateRip database
     Copy OK

Track  6

     Filename Z:\EAC\06 - Battle of the Angels.wav

     Peak level 100.0 %
     Extraction speed 3.2 X
     Track quality 100.0 %
     Test CRC 4C1EC125
     Copy CRC 4C1EC125
     Track not present in AccurateRip database
     Copy OK

Track  7

     Filename Z:\EAC\07 - Communion.wav

     Peak level 44.4 %
     Extraction speed 3.5 X
     Track quality 100.0 %
     Test CRC F7F81DBB
     Copy CRC F7F81DBB
     Track not present in AccurateRip database
     Copy OK

None of the tracks are present in the AccurateRip database

No errors occurred

End of status report

==== Log checksum F05ABCF7405F4DE4F9E9FD676584B71ED6EBA5DF29C7A0FA9D052B2E8F7C2124 ====
Содержание индексной карты (.CUE)
REM GENRE Improvisation
REM DATE 2014
REM DISCID 620B0707
REM COMMENT "ExactAudioCopy v1.0b3"
PERFORMER "John Zorn"
TITLE "The Hermetic Organ vol. 2 - St. Paul's Chapel"
FILE "01 - Crucifixion.wav" WAVE
  TRACK 01 AUDIO
    TITLE "Crucifixion"
    PERFORMER "John Zorn"
    FLAGS DCP
    INDEX 01 00:00:00
FILE "02 - Prayer.wav" WAVE
  TRACK 02 AUDIO
    TITLE "Prayer"
    PERFORMER "John Zorn"
    FLAGS DCP
    INDEX 01 00:00:00
FILE "03 - Ascent into the Maelstrom.wav" WAVE
  TRACK 03 AUDIO
    TITLE "Ascent into the Maelstrom"
    PERFORMER "John Zorn"
    FLAGS DCP
    INDEX 01 00:00:00
FILE "04 - In Gloria Dei.wav" WAVE
  TRACK 04 AUDIO
    TITLE "In Gloria Dei"
    PERFORMER "John Zorn"
    FLAGS DCP
    INDEX 01 00:00:00
FILE "05 - Holy Spirit.wav" WAVE
  TRACK 05 AUDIO
    TITLE "Holy Spirit"
    PERFORMER "John Zorn"
    FLAGS DCP
    INDEX 01 00:00:00
FILE "06 - Battle of the Angels.wav" WAVE
  TRACK 06 AUDIO
    TITLE "Battle of the Angels"
    PERFORMER "John Zorn"
    FLAGS DCP
    INDEX 01 00:00:00
FILE "07 - Communion.wav" WAVE
  TRACK 07 AUDIO
    TITLE "Communion"
    PERFORMER "John Zorn"
    FLAGS DCP
    INDEX 01 00:00:00
По всем вопросам пишите личное сообщение пользователю M0p94ok.
18:12
378
Нет комментариев. Ваш будет первым!