Поиск

2014 Dave Weckl & Jay Oliver - Convergence {}

2014 Dave Weckl & Jay Oliver - Convergence {}
Страна-производитель диска (релиза):
USA
Дата издания диска:
28 февраля 2014
Носитель:
CD
Аудиокодек:
FLAC (*.flac)
Тип рипа:
image+.cue
Битрейт аудио:
1
Время звучания:
59:40:45
Релизёр (источник):
Daniil9584459
Треклист:

01 Apocalypso
02 Sternoids
03 Carousel
04 Road To Connemara
05 Convergence
06 Cups (You're Gonna Miss Me)
07 Twelvin
08 Hand It Over
09 Higher Ground
10 Incantation

Лог создания рипа
Exact Audio Copy V1.0 beta 4 from 7. December 2014

Отчёт EAC об извлечении, выполненном 21. февраля 2015, 23:32

Dave Weckl , Jay Oliver / Convergence

Дисковод: TSSTcorpCDDVDW SH-222AB   Adapter: 1  ID: 0

Режим чтения                 : Достоверность
Использование точного потока : Да
Отключение кэша аудио        : Да
Использование указателей C2  : Нет

Коррекция смещения при чтении                     : 6
Способность читать области Lead-in и Lead-out     : Нет
Заполнение пропущенных сэмплов тишиной            : Да
Удаление блоков с тишиной в начале и конце        : Нет
При вычислениях CRC использовались нулевые сэмплы : Да
Интерфейс                                         : Встроенный Win32-интерфейс для Win NT/2000

Выходной формат : Внутренние WAV-операции
Формат сэмплов  : 44.100 Гц; 16 бит; стерео

TOC извлечённого CD

     Трек |   Старт  | Длительность | Начальный сектор | Конечный сектор
    ---------------------------------------------------------------------
       1  |  0:00.00 |    7:24.07   |           0      |      33306
       2  |  7:24.07 |    8:43.17   |       33307      |      72548
       3  | 16:07.24 |    5:16.50   |       72549      |      96298
       4  | 21:23.74 |    8:02.68   |       96299      |     132516
       5  | 29:26.67 |    6:04.50   |      132517      |     159866
       6  | 35:31.42 |    4:17.24   |      159867      |     179165
       7  | 39:48.66 |    7:28.10   |      179166      |     212775
       8  | 47:17.01 |    2:40.47   |      212776      |     224822
       9  | 49:57.48 |    5:55.23   |      224823      |     251470
      10  | 55:52.71 |    3:47.50   |      251471      |     268545

Характеристики диапазона извлечения и сообщения об ошибках

Выбранный диапазон

     Имя файла D:\Downloads\Dave Weckl_Jay Oliver\Dave Weckl , Jay Oliver - Convergence.wav

     Пиковый уровень 97.7 %
     Скорость извлечения 3.1 X
     Качество диапазона 99.9 %
     CRC теста 4E4D2CDA
     CRC копии 4E4D2CDA
     Копирование... OK

Ошибок не произошло

AccurateRip: сводка

Трек  1  : извлечено точно (доверие 1)  [E81FB588]  (AR v2)
Трек  2  : извлечено точно (доверие 1)  [937C74E2]  (AR v2)
Трек  3  : извлечено точно (доверие 1)  [8B948ED7]  (AR v2)
Трек  4  : извлечено точно (доверие 1)  [8CB8DCC0]  (AR v2)
Трек  5  : извлечено точно (доверие 1)  [0E063F88]  (AR v2)
Трек  6  : извлечено точно (доверие 1)  [B47626BE]  (AR v2)
Трек  7  : извлечено точно (доверие 1)  [F60D7466]  (AR v2)
Трек  8  : извлечено точно (доверие 1)  [98EA83E3]  (AR v2)
Трек  9  : извлечено точно (доверие 1)  [B86F5366]  (AR v2)
Трек 10  : извлечено точно (доверие 1)  [DB377ACB]  (AR v2)

Все треки извлечены точно

Конец отчёта

---- CUETools DB Plugin V2.1.4

[CTDB TOCID: 1bMLxT13e4Ib4zWvJPwtrjNMT2A-] found
Submit result: already submitted
Track | CTDB Status
  1   | (5/5) Accurately ripped
  2   | (5/5) Accurately ripped
  3   | (5/5) Accurately ripped
  4   | (5/5) Accurately ripped
  5   | (5/5) Accurately ripped
  6   | (5/5) Accurately ripped
  7   | (5/5) Accurately ripped
  8   | (5/5) Accurately ripped
  9   | (5/5) Accurately ripped
 10   | (5/5) Accurately ripped

==== Контрольная сумма отчёта 5EDD0E704B374FDC3FE75DBE5721BA18B7B65E03A02E20346E654A3FA7D39561 ====
Скачивание доступно после регистрации!!
Приватный:
Нет (DHT включён)
Размер:
381.04 Мб (399,551,534 байт) » файлов: 3
Участники:
0 раздают, 1 качают (1 участников всего)
Внешние участники:
7 раздают, 2 качают (9 участников всего) [ Обновить ]
Скорость:
431.62 Кб/c 0/c
15:41
173
Нет комментариев. Ваш будет первым!