Вы используете незарегистрированную версию компонента "Вкладки"!

Поиск

2014 Albert Ammons - All That Jazz, Vol. 13 (Remastered) (2019) {Jube Legends} [24-48]

2014 Albert Ammons - All That Jazz, Vol. 13 (Remastered) (2019) {Jube Legends} [24-48]
Стили:
Носитель:
WEB
Формат:
PCM
Тип рипа:
tracks+.cue
Контейнер:
FLAC (*.flac)
Количество каналов:
2.0
Разрядность/ЧД:
24/48
Битрейт аудио:
lossless
Время звучания:
00:43:08
Наличие сканов:
web
Релизёр (источник):
M0p94ok
Лог проверки качества
foobar2000 1.3.16 / Dynamic Range Meter 1.1.1
log date: 2019-04-03 02:56:13

--------------------------------------------------------------------------------
Analyzed: Albert Ammons / All That Jazz, Vol. 13: Albert Ammons — Movin' That Boogie (Remastered 2019)
--------------------------------------------------------------------------------

DR         Peak         RMS     Duration Track
--------------------------------------------------------------------------------
DR12       0.00 dB   -12.95 dB      2:32 01-Boogie Woogie Man
DR11       0.00 dB   -12.11 dB      2:43 02-12th Street Rag
DR11       0.00 dB   -13.29 dB      2:51 03-Barrel House Boogie
DR10       0.00 dB   -11.40 dB      3:02 04-Boogie Woogie on the St. Louis Blues
DR11       0.00 dB   -14.10 dB      2:38 05-Sixth Avenue Express
DR11       0.00 dB   -12.18 dB      2:39 06-Boogie Woogie on Civic Opera
DR11       0.00 dB   -13.77 dB      2:19 07-Foot Pedal Boogie
DR11       0.00 dB   -12.25 dB      2:41 08-You Are My Sunshine
DR11       0.00 dB   -14.36 dB      2:38 09-Pine Creek Boogie
DR10       0.00 dB   -12.44 dB      2:52 10-The Sheik (Of Araby)
DR11       0.00 dB   -13.56 dB      2:54 11-Walkin' the Boogie
DR11       0.00 dB   -13.00 dB      2:39 12-Old Folks at Home (Way Down upon the Swanee River)
DR11       0.00 dB   -13.89 dB      2:48 13-Movin' the Boogie
DR10       0.00 dB   -12.51 dB      2:43 14-S.P. Blues
DR12       0.00 dB   -14.37 dB      2:21 15-Cuttin' the Boogie
DR11       0.00 dB   -13.01 dB      2:55 16-Shufflin' the Boogie
--------------------------------------------------------------------------------

Number of tracks:  16
Official DR value: DR11

Samplerate:        48000 Hz
Channels:          2
Bits per sample:   24
Bitrate:           1439 kbps
Codec:             FLAC
================================================================================
Any questions - support@pro-jazz.com. Есть вопросы - support@pro-jazz.com
07:45
261
Нет комментариев. Ваш будет первым!