Поиск

2013 Magnus Ostrom - Searching for Jupiter {ACT Music 9541-2} [24-48]

2013 Magnus Ostrom - Searching for Jupiter {ACT Music 9541-2} [24-48]
Дата записи диска:
28 января - 1 февраля 2013
Место записи:
Atlantis Studio, Stockholm, Sweden
Дата издания диска:
30 августа 2013
Издатель (лейбл):
Номер по каталогу:
ACT 9541-2
Носитель:
WEB
Формат:
PCM
Тип рипа:
tracks+.cue
Контейнер:
APE (*.ape)
Количество каналов:
2.0
Разрядность/ЧД:
24/48
Битрейт аудио:
lossless
Время звучания:
00:56:37
Наличие сканов:
да
Страна-производитель диска (релиза):
Germany
Релизёр (источник):
M0p94ok
Лог проверки качества
foobar2000 1.3.16 / Dynamic Range Meter 1.1.1
log date: 2019-04-09 17:38:46

--------------------------------------------------------------------------------
Analyzed: Magnus Ostrom / Searching for Jupiter
--------------------------------------------------------------------------------

DR         Peak         RMS     Duration Track
--------------------------------------------------------------------------------
DR8       -1.47 dB   -12.85 dB      7:06 01-The Moon (And the Air It Moves)
DR9       -1.35 dB   -11.56 dB      5:05 02-Dancing at the Dutchtreat
DR9       -1.62 dB   -13.72 dB      4:22 03-Mary Jane Doesn't Live Here Anymore
DR8       -1.27 dB   -10.97 dB      9:31 04-Searching for Jupiter
DR6       -1.45 dB    -9.92 dB      6:40 05-Hour of the Wolf
DR9       -1.51 dB   -11.96 dB      5:47 06-Through the Sun
DR9       -1.18 dB   -11.71 dB      5:36 07-Happy and the Fall
DR9       -1.48 dB   -12.76 dB      5:17 08-Jules and Jim's Last Voyage
DR8       -1.53 dB   -11.62 dB      7:12 09-At the End of Eternity
--------------------------------------------------------------------------------

Number of tracks:  9
Official DR value: DR8

Samplerate:        48000 Hz
Channels:          2
Bits per sample:   24
Bitrate:           855 kbps
Codec:             FLAC
================================================================================
No seeders - write personal message to M0p94ok. Any questions - support@pro-jazz.com.
Нет сидеров - пишите в личку M0p94ok. Есть вопросы - support@pro-jazz.com
16:37
432
Нет комментариев. Ваш будет первым!