Поиск

2013 John Zorn - Shir Hashirim {Tzadik TZ 8310} [CD]

2013 John Zorn - Shir Hashirim {Tzadik TZ 8310} [CD]
Треклист:

1 Kiss Me 4:08
2 Rose Of Sharon 3:11
3 At Night In My Bed 3:46
4 How Beautiful You Are 3:07
5 I Have Come Into My Garden 5:22
6 Where Has Your Lover Gone 3:45
7 Dance Again 3:36
8 O, If You Were My Only Brother 4:07

Состав:
  • Abigail Fischer
  • Kathryn Mulvehill
  • Kirsten Sollek
  • Lisa Bielawa
  • Martha Cluver

Жанр: Avant-garde, vocal music
Страна-производитель диска: US
Год издания диска: 2013
Издатель (лейбл): Tzadik
Номер по каталогу: TZ 8310
Аудиокодек: FLAC
Тип рипа: tracks+.cue
Битрейт аудио: lossless
Продолжительность: 00:31:02
Источник: сеть
Наличие сканов в содержимом раздачи: нет

Лог создания рипа
X Lossless Decoder version 20131102 (145.0)

XLD extraction logfile from 2013-12-31 13:12:30 -0500

John Zorn / Shir Hashirim

Used drive : MATSHITA DVD-R   UJ-898 (revision HC09)
Media type : Pressed CD

Ripper mode             : XLD Secure Ripper
Disable audio cache     : OK for the drive with a cache less than 1375KiB
Make use of C2 pointers : NO
Read offset correction  : 102
Max retry count         : 20
Gap status              : Analyzed, Appended (except HTOA)

TOC of the extracted CD
     Track |   Start  |  Length  | Start sector | End sector
    ---------------------------------------------------------
        1  | 00:00:00 | 04:08:02 |         0    |    18601
        2  | 04:08:02 | 03:10:44 |     18602    |    32895
        3  | 07:18:46 | 03:45:66 |     32896    |    49836
        4  | 11:04:37 | 03:07:18 |     49837    |    63879
        5  | 14:11:55 | 05:21:71 |     63880    |    88025
        6  | 19:33:51 | 03:44:74 |     88026    |   104899
        7  | 23:18:50 | 03:36:21 |    104900    |   121120
        8  | 26:54:71 | 04:07:31 |    121121    |   139676

AccurateRip Summary
    Disc not found in AccurateRip DB.

All Tracks
    Album gain               : -4.68 dB
    Peak                     : 0.897949
    Statistics
        Read error                           : 0
        Jitter error (maybe fixed)           : 0
        Retry sector count                   : 0
        Damaged sector count                 : 0

Track 01
    Filename : /Users/montchr/Music/out/John Zorn - Shir Hashirim (2013) [FLAC]/01 Kiss Me.flac
    Pre-gap length : 00:02:00

    Track gain               : -4.67 dB
    Peak                     : 0.888062
    CRC32 hash (test run)    : 29A8FB69
    CRC32 hash               : 29A8FB69
    CRC32 hash (skip zero)   : C6F9324F
    AccurateRip v1 signature : 0C6B0DFE
    AccurateRip v2 signature : 81873D47
        ->Track not present in AccurateRip database.
    Statistics
        Read error                           : 0
        Jitter error (maybe fixed)           : 0
        Retry sector count                   : 0
        Damaged sector count                 : 0

Track 02
    Filename : /Users/montchr/Music/out/John Zorn - Shir Hashirim (2013) [FLAC]/02 Rose of Sharon.flac

    Track gain               : -6.03 dB
    Peak                     : 0.894775
    CRC32 hash (test run)    : 3A54D819
    CRC32 hash               : 3A54D819
    CRC32 hash (skip zero)   : 78A45926
    AccurateRip v1 signature : 32C26E64
    AccurateRip v2 signature : 5431D7C3
        ->Track not present in AccurateRip database.
    Statistics
        Read error                           : 0
        Jitter error (maybe fixed)           : 0
        Retry sector count                   : 0
        Damaged sector count                 : 0

Track 03
    Filename : /Users/montchr/Music/out/John Zorn - Shir Hashirim (2013) [FLAC]/03 At Night in My Bed.flac

    Track gain               : -4.80 dB
    Peak                     : 0.890442
    CRC32 hash (test run)    : 43957B4F
    CRC32 hash               : 43957B4F
    CRC32 hash (skip zero)   : E115E5EA
    AccurateRip v1 signature : 7E1A4563
    AccurateRip v2 signature : 354DE49A
        ->Track not present in AccurateRip database.
    Statistics
        Read error                           : 0
        Jitter error (maybe fixed)           : 0
        Retry sector count                   : 0
        Damaged sector count                 : 0

Track 04
    Filename : /Users/montchr/Music/out/John Zorn - Shir Hashirim (2013) [FLAC]/04 How Beautiful You Are.flac

    Track gain               : -2.65 dB
    Peak                     : 0.897949
    CRC32 hash (test run)    : 53A8A972
    CRC32 hash               : 53A8A972
    CRC32 hash (skip zero)   : 55C10BF9
    AccurateRip v1 signature : 5F530E0D
    AccurateRip v2 signature : 8DFBBAA7
        ->Track not present in AccurateRip database.
    Statistics
        Read error                           : 0
        Jitter error (maybe fixed)           : 0
        Retry sector count                   : 0
        Damaged sector count                 : 0

Track 05
    Filename : /Users/montchr/Music/out/John Zorn - Shir Hashirim (2013) [FLAC]/05 I Have Come Into My Garden.flac

    Track gain               : -4.14 dB
    Peak                     : 0.867950
    CRC32 hash (test run)    : 3510EDDA
    CRC32 hash               : 3510EDDA
    CRC32 hash (skip zero)   : 3627D72C
    AccurateRip v1 signature : E600687C
    AccurateRip v2 signature : 0C911504
        ->Track not present in AccurateRip database.
    Statistics
        Read error                           : 0
        Jitter error (maybe fixed)           : 0
        Retry sector count                   : 0
        Damaged sector count                 : 0

Track 06
    Filename : /Users/montchr/Music/out/John Zorn - Shir Hashirim (2013) [FLAC]/06 Where Has Your Lover Gone.flac

    Track gain               : -4.67 dB
    Peak                     : 0.892700
    CRC32 hash (test run)    : 6486B533
    CRC32 hash               : 6486B533
    CRC32 hash (skip zero)   : 88339C7F
    AccurateRip v1 signature : C7A43536
    AccurateRip v2 signature : 3EDB6D78
        ->Track not present in AccurateRip database.
    Statistics
        Read error                           : 0
        Jitter error (maybe fixed)           : 0
        Retry sector count                   : 0
        Damaged sector count                 : 0

Track 07
    Filename : /Users/montchr/Music/out/John Zorn - Shir Hashirim (2013) [FLAC]/07 Dance Again.flac

    Track gain               : -4.10 dB
    Peak                     : 0.888428
    CRC32 hash (test run)    : 2FAD705B
    CRC32 hash               : 2FAD705B
    CRC32 hash (skip zero)   : F9BC2769
    AccurateRip v1 signature : BD462A88
    AccurateRip v2 signature : BCAE4C77
        ->Track not present in AccurateRip database.
    Statistics
        Read error                           : 0
        Jitter error (maybe fixed)           : 0
        Retry sector count                   : 0
        Damaged sector count                 : 0

Track 08
    Filename : /Users/montchr/Music/out/John Zorn - Shir Hashirim (2013) [FLAC]/08 O, If You Were Only My Brother.flac

    Track gain               : -3.93 dB
    Peak                     : 0.886292
    CRC32 hash (test run)    : CB05AB36
    CRC32 hash               : CB05AB36
    CRC32 hash (skip zero)   : D8212F98
    AccurateRip v1 signature : 626EE45F
    AccurateRip v2 signature : 68CB393D
        ->Track not present in AccurateRip database.
    Statistics
        Read error                           : 0
        Jitter error (maybe fixed)           : 0
        Retry sector count                   : 0
        Damaged sector count                 : 0

No errors occurred

End of status report

-----BEGIN XLD SIGNATURE-----
BjgvS_lLJZEEbtiy1KvsfHzgxSpqQRkh.m4JPxPZNfhNCKzIYw4xiBMu7MG2k8vDYwAhBG.qwJqvBGm_0X9D034hNxPnd8igIOI5e2K
-----END XLD SIGNATURE-----
Содержание индексной карты (.CUE)
TITLE "Shir Hashirim"
PERFORMER "John Zorn"
REM DATE "2013-12-03"
REM DISCID 54074608
REM REPLAYGAIN_ALBUM_GAIN -4.68 dB
REM REPLAYGAIN_ALBUM_PEAK 0.897949
FILE "01 Kiss Me.flac" WAVE
  TRACK 01 AUDIO
    TITLE "Kiss Me"
    PERFORMER "John Zorn"
    FLAGS DCP
    REM REPLAYGAIN_TRACK_GAIN -4.67 dB
    REM REPLAYGAIN_TRACK_PEAK 0.888062
    INDEX 01 00:00:00
FILE "02 Rose of Sharon.flac" WAVE
  TRACK 02 AUDIO
    TITLE "Rose of Sharon"
    PERFORMER "John Zorn"
    FLAGS DCP
    REM REPLAYGAIN_TRACK_GAIN -6.03 dB
    REM REPLAYGAIN_TRACK_PEAK 0.894775
    INDEX 01 00:00:00
FILE "03 At Night in My Bed.flac" WAVE
  TRACK 03 AUDIO
    TITLE "At Night in My Bed"
    PERFORMER "John Zorn"
    FLAGS DCP
    REM REPLAYGAIN_TRACK_GAIN -4.80 dB
    REM REPLAYGAIN_TRACK_PEAK 0.890442
    INDEX 01 00:00:00
FILE "04 How Beautiful You Are.flac" WAVE
  TRACK 04 AUDIO
    TITLE "How Beautiful You Are"
    PERFORMER "John Zorn"
    FLAGS DCP
    REM REPLAYGAIN_TRACK_GAIN -2.65 dB
    REM REPLAYGAIN_TRACK_PEAK 0.897949
    INDEX 01 00:00:00
FILE "05 I Have Come Into My Garden.flac" WAVE
  TRACK 05 AUDIO
    TITLE "I Have Come Into My Garden"
    PERFORMER "John Zorn"
    FLAGS DCP
    REM REPLAYGAIN_TRACK_GAIN -4.14 dB
    REM REPLAYGAIN_TRACK_PEAK 0.867950
    INDEX 01 00:00:00
FILE "06 Where Has Your Lover Gone.flac" WAVE
  TRACK 06 AUDIO
    TITLE "Where Has Your Lover Gone"
    PERFORMER "John Zorn"
    FLAGS DCP
    REM REPLAYGAIN_TRACK_GAIN -4.67 dB
    REM REPLAYGAIN_TRACK_PEAK 0.892700
    INDEX 01 00:00:00
FILE "07 Dance Again.flac" WAVE
  TRACK 07 AUDIO
    TITLE "Dance Again"
    PERFORMER "John Zorn"
    FLAGS DCP
    REM REPLAYGAIN_TRACK_GAIN -4.10 dB
    REM REPLAYGAIN_TRACK_PEAK 0.888428
    INDEX 01 00:00:00
FILE "08 O, If You Were Only My Brother.flac" WAVE
  TRACK 08 AUDIO
    TITLE "O, If You Were Only My Brother"
    PERFORMER "John Zorn"
    FLAGS DCP
    REM REPLAYGAIN_TRACK_GAIN -3.93 dB
    REM REPLAYGAIN_TRACK_PEAK 0.886292
    INDEX 01 00:00:00
Download available for power users only.
18:22
430
Нет комментариев. Ваш будет первым!