Вы используете незарегистрированную версию компонента "Вкладки"!

Поиск

2013 Iiro Rantala, Leszek Możdżer, Michael Wollny - Jazz at Berlin Philharmonic I {ACT} [24-44,1]

2013 Iiro Rantala, Leszek Możdżer, Michael Wollny - Jazz at Berlin Philharmonic I {ACT} [24-44,1]
Издатель (лейбл):
Доп. инфо:

Формат записи/Источник записи: [TR24][OF]
Наличие водяных знаков: Нет
Год издания/переиздания диска: 2013
Продолжительность: 00:56:28
Наличие сканов в содержимом раздачи: Буклет PDF
Источник (релизер): highresaudio

Контейнер: FLAC (*.flac)
Тип рипа: tracks
Разрядность: 24/44,1
Формат: PCM
Количество каналов: 2.0
Доп. информация: https://www.actmusic.com/

Лог проверки качества
foobar2000 1.1.15 / Dynamic Range Meter 1.1.1
log date: 2020-02-05 14:48:40

--------------------------------------------------------------------------------
Analyzed: Iiro Rantala / Jazz at Berlin Philharmonic I (Live) (1-4)
          Leszek Mozdzer / Jazz at Berlin Philharmonic I (Live) (5-7)
          Michael Wollny / Jazz at Berlin Philharmonic I (Live) (8)
--------------------------------------------------------------------------------

DR         Peak         RMS     Duration Track
--------------------------------------------------------------------------------
DR13      -0.89 dB   -18.79 dB      7:11 01-Aria and Goldberg Variation  (Live)
DR13      -0.38 dB   -19.00 dB      6:54 02-Tears for Esbjörn  (Live)
DR13      -0.30 dB   -18.78 dB      8:08 07-Suffering  (Live)
DR11      -0.51 dB   -14.80 dB      6:17 08-Armando's Rumba  (Live)
DR13      -0.27 dB   -16.93 dB      5:28 04-No Message  (Live)
DR14      -2.55 dB   -21.35 dB      5:34 05-Incognitor  (Live)
DR11      -0.26 dB   -14.47 dB      6:34 06-Svantetic  (Live)
DR11      -0.20 dB   -17.06 dB     10:22 03-Hexentanz  (Live)
--------------------------------------------------------------------------------

Number of tracks:  8
Official DR value: DR12

Samplerate:        44100 Hz
Channels:          2
Bits per sample:   24
Bitrate:           1187 kbps
Codec:             FLAC
================================================================================
Any questions - support@pro-jazz.com. Есть вопросы - support@pro-jazz.com
09:06
271
Нет комментариев. Ваш будет первым!