Поиск

2013 Art Pepper - Foxy Lady Session: Art, Warne, Buddy, Carol [24-44.1]

2013 Art Pepper - Foxy Lady Session: Art, Warne, Buddy, Carol [24-44.1]
Стили:
Дата записи диска:
20 апреля 1975
Дата издания диска:
24 мая 2013
Битрейт аудио:
lossless
Треклист:

01. Sonnymoon for Two - 11:02
02. Ode to Billie Joe - 18:08
03. Here's That Rainy Day - 14:02
04. I'll Remember April - 16:57
05. Broadway - 13:22
06. All the Things You Are - 18:21
07. Walkin' - 22:17
08. Chameleon - 21:30

Доп. инфо:

Формат записи/Источник записи: [TR24][OF]
Наличие водяных знаков: Нет
Год издания/переиздания диска: 2013
Издатель (лейбл): Self-Released
Продолжительность: 02:15:39
Наличие сканов в содержимом раздачи: Только обложка альбома

Контейнер: FLAC (*.flac)
Тип рипа: tracks
Разрядность: 24/44,1
Формат: PCM
Количество каналов: 2.0

Источник (релизер): bandcamp

Лог проверки качества
foobar2000 1.6.2 / Dynamic Range Meter 1.1.1
log date: 2020-12-12 09:21:42

--------------------------------------------------------------------------------
Analyzed: Art Pepper / Foxy Lady Session: Art, Warne, Buddy, Carol
--------------------------------------------------------------------------------

DR         Peak         RMS     Duration Track
--------------------------------------------------------------------------------
DR11      -2.54 dB   -15.31 dB     11:02 01-Sonnymoon for Two
DR10      -2.19 dB   -13.98 dB     18:08 02-Ode to Billie Joe
DR10      -2.55 dB   -17.49 dB     14:02 03-Here's That Rainy Day
DR11      -2.50 dB   -15.57 dB     16:57 04-I'll Remember April
DR11      -2.80 dB   -15.67 dB     13:22 05-Broadway
DR11      -1.29 dB   -15.60 dB     18:21 06-All the Things You Are
DR11      -2.58 dB   -17.44 dB     22:17 07-Walkin'
DR10      -1.27 dB   -14.49 dB     21:30 08-Chameleon
--------------------------------------------------------------------------------

Number of tracks:  8
Official DR value: DR11

Samplerate:        44100 Hz
Channels:          2
Bits per sample:   24
Bitrate:           1544 kbps
Codec:             FLAC
================================================================================
Приватный:
Нет (DHT включён)
Размер:
1.45 Гб (1,560,546,929 байт) » файлов: 12
Участники:
0 раздают, 0 качают (0 участников всего)
Внешние участники:
7 раздают, 2 качают (9 участников всего) [ Обновить ]
No seeders - write personal message to M0p94ok. Any questions - support@pro-jazz.com.
Нет сидеров - пишите в личку M0p94ok. Есть вопросы - support@pro-jazz.com
22:21
133
Нет комментариев. Ваш будет первым!