Поиск

2012 VA - Jazz for Osaka: 11 Sweet Tracks of European Jazz

2012 VA - Jazz for Osaka: 11 Sweet Tracks of European Jazz
Страна-производитель диска (релиза):
USA
Дата издания диска:
2012
Номер по каталогу:
JD-SP 5005
Носитель:
CD
Битрейт аудио:
lossless
Аудиокодек:
FLAC (*.flac)
Тип рипа:
tracks+.cue
Время звучания:
48:39
Наличие сканов:
  • да
Релизёр (источник):
redacted

01. Svein Finnerud Trio - Ida (4:03)
02. Bill Evans Trio - Time Remembered (Mornin' Glory) (4:37)
03. Martha Hayes - Gypsy in My Soul (3:20)
04. Barney Wilen - Snakes (3:01)
05. Romano Mussolini All-Stars - Full di Dame (1:53)
06. Albert Mangelsdorff Quintet - Club Trois (5:58)
07. Hank Bagby - Iborian (5:45)
08. Guido Manusardi - Blues for Vally (4:09)
09. Hank de Mano - Long Ago and Far Away (5:35)
10. European Jazz Quartet - The Way You Look Tonight (2:08)
11. Dick Morrissey Quartet - Sonny Boy (8:10)

Лог создания рипа
<spoiler title="Лог создания рипа"><pre>Exact Audio Copy V1.0 beta 3 from 29. August 2011
EAC extraction logfile from 28. June 2012, 14:16
Jazz for Osaka / 11 Sweet Tracks of European Jazz
Used drive  : PIONEER BD-RW   BDR-207M   Adapter: 0  ID: 3
Read mode               : Secure
Utilize accurate stream : Yes
Defeat audio cache      : Yes
Make use of C2 pointers : No
Read offset correction                      : 667
Overread into Lead-In and Lead-Out          : No
Fill up missing offset samples with silence : Yes
Delete leading and trailing silent blocks   : No
Null samples used in CRC calculations       : Yes
Used interface                              : Native Win32 interface for Win NT & 2000
Gap handling                                : Appended to previous track
Used output format              : User Defined Encoder
Selected bitrate                : 1024 kBit/s
Quality                         : High
Add ID3 tag                     : No
Command line compressor         : C:\Program Files (x86)\Exact Audio Copy\Flac\flac.exe
Additional command line options : -8 -V -T "ARTIST=%artist%" -T "TITLE=%title%" -T "ALBUM=%albumtitle%" -T "DATE=%year%" -T "TRACKNUMBER=%tracknr%" -T "GENRE=%genre%" -T "PERFORMER=%albuminterpret%" -T "COMPOSER=%composer%" %haslyrics%--tag-from-file=LYRICS="%lyricsfile%"%haslyrics% -T "ALBUMARTIST=%albumartist%" -T "DISCNUMBER=%cdnumber%" -T "TOTALDISCS=%totalcds%" -T "TOTALTRACKS=%numtracks%" -T "COMMENT=%comment%" %source% -o %dest%
TOC of the extracted CD
     Track |   Start  |  Length  | Start sector | End sector
    ---------------------------------------------------------
        1  |  0:00.00 |  4:02.48 |         0    |    18197
        2  |  4:02.48 |  4:37.07 |     18198    |    38979
        3  |  8:39.55 |  3:20.00 |     38980    |    53979
        4  | 11:59.55 |  3:01.04 |     53980    |    67558
        5  | 15:00.59 |  1:52.59 |     67559    |    76017
        6  | 16:53.43 |  5:58.03 |     76018    |   102870
        7  | 22:51.46 |  5:45.10 |    102871    |   128755
        8  | 28:36.56 |  4:09.07 |    128756    |   147437
        9  | 32:45.63 |  5:34.58 |    147438    |   172545
       10  | 38:20.46 |  2:08.19 |    172546    |   182164
       11  | 40:28.65 |  8:09.52 |    182165    |   218891
Track  1
     Filename E:\OPENCD\Jazz For Osaka - 11 Sweet Tracks Of European Jazz\01 - Ida.wav
     Pre-gap length  0:00:02.00
     Peak level 99.9 %
     Extraction speed 4.4 X
     Track quality 100.0 %
     Test CRC B8CFDBA4
     Copy CRC B8CFDBA4
     Track not present in AccurateRip database
     Copy OK
Track  2
     Filename E:\OPENCD\Jazz For Osaka - 11 Sweet Tracks Of European Jazz\02 - Time Remembered (Mornin’ Glory.wav
     Pre-gap length  0:00:02.00
     Peak level 69.8 %
     Extraction speed 4.9 X
     Track quality 100.0 %
     Test CRC 21FBB3CF
     Copy CRC 21FBB3CF
     Track not present in AccurateRip database
     Copy OK
Track  3
     Filename E:\OPENCD\Jazz For Osaka - 11 Sweet Tracks Of European Jazz\03 - Gypsy In My Soul.wav
     Pre-gap length  0:00:02.00
     Peak level 65.1 %
     Extraction speed 5.1 X
     Track quality 100.0 %
     Test CRC CC5327A9
     Copy CRC CC5327A9
     Track not present in AccurateRip database
     Copy OK
Track  4
     Filename E:\OPENCD\Jazz For Osaka - 11 Sweet Tracks Of European Jazz\04 - Snakes.wav
     Pre-gap length  0:00:02.00
     Peak level 57.3 %
     Extraction speed 5.3 X
     Track quality 100.0 %
     Test CRC A4CB8490
     Copy CRC A4CB8490
     Track not present in AccurateRip database
     Copy OK
Track  5
     Filename E:\OPENCD\Jazz For Osaka - 11 Sweet Tracks Of European Jazz\05 - Full Di Dame.wav
     Pre-gap length  0:00:02.00
     Peak level 59.1 %
     Extraction speed 5.0 X
     Track quality 100.0 %
     Test CRC 31664BB8
     Copy CRC 31664BB8
     Track not present in AccurateRip database
     Copy OK
Track  6
     Filename E:\OPENCD\Jazz For Osaka - 11 Sweet Tracks Of European Jazz\06 - Club Trois.wav
     Pre-gap length  0:00:02.00
     Peak level 54.1 %
     Extraction speed 6.4 X
     Track quality 100.0 %
     Test CRC F97D97FC
     Copy CRC F97D97FC
     Track not present in AccurateRip database
     Copy OK
Track  7
     Filename E:\OPENCD\Jazz For Osaka - 11 Sweet Tracks Of European Jazz\07 - Iborian.wav
     Pre-gap length  0:00:02.00
     Peak level 60.9 %
     Extraction speed 6.8 X
     Track quality 100.0 %
     Test CRC 08E13512
     Copy CRC 08E13512
     Track not present in AccurateRip database
     Copy OK
Track  8
     Filename E:\OPENCD\Jazz For Osaka - 11 Sweet Tracks Of European Jazz\08 - Blues For Vally.wav
     Pre-gap length  0:00:02.00
     Peak level 59.1 %
     Extraction speed 6.8 X
     Track quality 100.0 %
     Test CRC CB8ABAA9
     Copy CRC CB8ABAA9
     Track not present in AccurateRip database
     Copy OK
Track  9
     Filename E:\OPENCD\Jazz For Osaka - 11 Sweet Tracks Of European Jazz\09 - Long Ago And Far Away.wav
     Pre-gap length  0:00:02.00
     Peak level 75.3 %
     Extraction speed 7.4 X
     Track quality 100.0 %
     Test CRC B26F815E
     Copy CRC B26F815E
     Track not present in AccurateRip database
     Copy OK
Track 10
     Filename E:\OPENCD\Jazz For Osaka - 11 Sweet Tracks Of European Jazz\10 - The Way You Look Tonight.wav
     Pre-gap length  0:00:02.00
     Peak level 98.5 %
     Extraction speed 6.4 X
     Track quality 100.0 %
     Test CRC 32DBAE1B
     Copy CRC 32DBAE1B
     Track not present in AccurateRip database
     Copy OK
Track 11
     Filename E:\OPENCD\Jazz For Osaka - 11 Sweet Tracks Of European Jazz\11 - Sonny Boy.wav
     Pre-gap length  0:00:02.00
     Peak level 65.1 %
     Extraction speed 7.5 X
     Track quality 99.9 %
     Test CRC 6B141F17
     Copy CRC 6B141F17
     Track not present in AccurateRip database
     Copy OK
None of the tracks are present in the AccurateRip database
No errors occurred
End of status report
---- CUETools DB Plugin V2.1.3
[CTDB TOCID: X_chuZfjsEmiBKKio6lnhSmEyy4-] disk not present in database, Submit result: X_chuZfjsEmiBKKio6lnhSmEyy4- has been uploaded
==== Log checksum DD68E5EC1D6862DA7967F5507CE2075048A4F27B629AAD9141EA029976D34195 ====</pre></spoiler>
Содержание индексной карты (.CUE)
<spoiler title="Содержание индексной карты (.CUE)"><pre>
REM GENRE Jazz
REM DATE 2012
REM DISCID 760B660B
REM COMMENT "ExactAudioCopy v1.0b3"
PERFORMER "Various"
TITLE "Jazz for Osaka: 11 Sweet Tracks of European Jazz"
FILE "01 - Svein Finnerud Trio - Ida.wav" WAVE
  TRACK 01 AUDIO
    TITLE "Ida"
    PERFORMER "Svein Finnerud Trio"
    INDEX 01 00:00:00
  TRACK 02 AUDIO
    TITLE "Time Remembered (Mornin' Glory)"
    PERFORMER "Bill Evans Trio"
    INDEX 00 04:00:48
FILE "02 - Bill Evans Trio - Time Remembered (Mornin' Glory).wav" WAVE
    INDEX 01 00:00:00
  TRACK 03 AUDIO
    TITLE "Gypsy in My Soul"
    PERFORMER "Martha Hayes"
    INDEX 00 04:35:07
FILE "03 - Martha Hayes - Gypsy in My Soul.wav" WAVE
    INDEX 01 00:00:00
  TRACK 04 AUDIO
    TITLE "Snakes"
    PERFORMER "Barney Wilen"
    INDEX 00 03:18:00
FILE "04 - Barney Wilen - Snakes.wav" WAVE
    INDEX 01 00:00:00
  TRACK 05 AUDIO
    TITLE "Full di Dame"
    PERFORMER "Romano Mussolini All-Stars"
    INDEX 00 02:59:04
FILE "05 - Romano Mussolini All-Stars - Full di Dame.wav" WAVE
    INDEX 01 00:00:00
  TRACK 06 AUDIO
    TITLE "Club Trois"
    PERFORMER "Albert Mangelsdorff Quintet"
    INDEX 00 01:50:59
FILE "06 - Albert Mangelsdorff Quintet - Club Trois.wav" WAVE
    INDEX 01 00:00:00
  TRACK 07 AUDIO
    TITLE "Iborian"
    PERFORMER "Hank Bagby"
    INDEX 00 05:56:03
FILE "07 - Hank Bagby - Iborian.wav" WAVE
    INDEX 01 00:00:00
  TRACK 08 AUDIO
    TITLE "Blues for Vally"
    PERFORMER "Guido Manusardi"
    INDEX 00 05:43:10
FILE "08 - Guido Manusardi - Blues for Vally.wav" WAVE
    INDEX 01 00:00:00
  TRACK 09 AUDIO
    TITLE "Long Ago and Far Away"
    PERFORMER "Hank de Mano"
    INDEX 00 04:07:07
FILE "09 - Hank de Mano - Long Ago and Far Away.wav" WAVE
    INDEX 01 00:00:00
  TRACK 10 AUDIO
    TITLE "The Way You Look Tonight"
    PERFORMER "European Jazz Quartet"
    INDEX 00 05:32:58
FILE "10 - European Jazz Quartet - The Way You Look Tonight.wav" WAVE
    INDEX 01 00:00:00
  TRACK 11 AUDIO
    TITLE "Sonny Boy"
    PERFORMER "Dick Morrissey Quartet"
    INDEX 00 02:06:19
FILE "11 - Dick Morrissey Quartet - Sonny Boy.wav" WAVE
    INDEX 01 00:00:00
</pre></spoiler>
Приватный:
Нет (DHT включён)
Размер:
233.29 Мб (244,619,818 байт) » файлов: 19
Участники:
0 раздают, 0 качают (0 участников всего)
Внешние участники:
3 раздают, 1 качают (4 участников всего) [ Обновить ]
14:04
101
RSS
Нет комментариев. Ваш будет первым!