Поиск

2012 Rabih Abou-Khalil - Hungry People {World Village WVF 479078}

2012 Rabih Abou-Khalil - Hungry People {World Village WVF 479078}
Страна-производитель диска (релиза):
Austria
Дата записи диска:
19-26 мая 2011
Дата издания диска:
2012
Издатель (лейбл):
Номер по каталогу:
WVF 479078
Носитель:
CD
Битрейт аудио:
lossless
Аудиокодек:
FLAC (*.flac)
Тип рипа:
tracks+.cue
Время звучания:
56:44
Наличие сканов:
  • да
Релизёр (источник):
dtromp

Треклист:

01. Shrilling Chicken [04:14]
02. When the Dog Bites [05:12]
03. A Better Tomorrow [06:44]
04. Bankers' Banquet [05:31]
05. Dreams of a Dying City [05:38]
06. Fish and Chips and Mushy Peas [04:44]
07. Hats and Cravats [06:09]
08. When Frankie Shot Lara [06:33]
09. If you Should Leave Me... [07:04]
10. Shaving is Boring, Waxing is Painful [04:49]

Состав:
  • Rabih Abou-Khalil — oud
  • Gavino Murgia — soprano sax, vocals
  • Luciano Biondini — accordion
  • Michel Godard — tuba, serpent, bass
  • Jarrod Cagwin — drums, frame drums
Лог создания рипа
Exact Audio Copy V1.0 beta 3 from 29. August 2011

EAC extraction logfile from 4. December 2012, 18:55

Rabih Abou-Khalil / Hungry People

Used drive  : PLEXTOR DVDR   PX-860A   Adapter: 0  ID: 0

Read mode               : Secure
Utilize accurate stream : Yes
Defeat audio cache      : Yes
Make use of C2 pointers : No

Read offset correction                      : 96
Overread into Lead-In and Lead-Out          : No
Fill up missing offset samples with silence : Yes
Delete leading and trailing silent blocks   : No
Null samples used in CRC calculations       : Yes
Used interface                              : Native Win32 interface for Win NT & 2000
Gap handling                                : Appended to previous track

Used output format              : User Defined Encoder
Selected bitrate                : 1024 kBit/s
Quality                         : High
Add ID3 tag                     : No
Command line compressor         : C:\Program Files\Exact Audio Copy\Flac\flac.exe
Additional command line options : -8 -V -T "ARTIST=%artist%" -T "TITLE=%title%" -T "ALBUM=%albumtitle%" -T "DATE=%year%" -T "TRACKNUMBER=%tracknr%" -T "GENRE=%genre%" -T "PERFORMER=%albuminterpret%" -T "COMPOSER=%composer%" %haslyrics%--tag-from-file=LYRICS="%lyricsfile%"%haslyrics% -T "ALBUMARTIST=%albumartist%" -T "DISCNUMBER=%cdnumber%" -T "TOTALDISCS=%totalcds%" -T "TOTALTRACKS=%numtracks%" -T "COMMENT=EAC Secure Mode, Test & Copy, AccurateRip, FLAC -8" %source% -o %dest%

TOC of the extracted CD

     Track |   Start  |  Length  | Start sector | End sector
    ---------------------------------------------------------
        1  |  0:00.00 |  4:14.55 |         0    |    19104
        2  |  4:14.55 |  5:12.44 |     19105    |    42548
        3  |  9:27.24 |  6:44.63 |     42549    |    72911
        4  | 16:12.12 |  5:31.36 |     72912    |    97772
        5  | 21:43.48 |  5:38.11 |     97773    |   123133
        6  | 27:21.59 |  4:44.37 |    123134    |   144470
        7  | 32:06.21 |  6:09.52 |    144471    |   172197
        8  | 38:15.73 |  6:33.74 |    172198    |   201746
        9  | 44:49.72 |  7:04.73 |    201747    |   233619
       10  | 51:54.70 |  4:49.25 |    233620    |   255319

Track  1

     Filename I:\DL\Rabih Abou-Khalil - Hungry People (2012) [FLAC]\01 - Shrilling Chicken.wav

     Pre-gap length  0:00:02.00

     Peak level 100.0 %
     Extraction speed 4.4 X
     Track quality 100.0 %
     Test CRC C6417BFD
     Copy CRC C6417BFD
     Track not present in AccurateRip database
     Copy OK

Track  2

     Filename I:\DL\Rabih Abou-Khalil - Hungry People (2012) [FLAC]\02 - When the Dog Bites.wav

     Peak level 100.0 %
     Extraction speed 5.0 X
     Track quality 100.0 %
     Test CRC 1F00DC42
     Copy CRC 1F00DC42
     Track not present in AccurateRip database
     Copy OK

Track  3

     Filename I:\DL\Rabih Abou-Khalil - Hungry People (2012) [FLAC]\03 - A Better Tomorrow.wav

     Peak level 100.0 %
     Extraction speed 5.7 X
     Track quality 100.0 %
     Test CRC 0902FD3E
     Copy CRC 0902FD3E
     Track not present in AccurateRip database
     Copy OK

Track  4

     Filename I:\DL\Rabih Abou-Khalil - Hungry People (2012) [FLAC]\04 - Bankers' Banquet.wav

     Peak level 100.0 %
     Extraction speed 6.2 X
     Track quality 100.0 %
     Test CRC 194C53F4
     Copy CRC 194C53F4
     Track not present in AccurateRip database
     Copy OK

Track  5

     Filename I:\DL\Rabih Abou-Khalil - Hungry People (2012) [FLAC]\05 - Dreams of a Dying City.wav

     Peak level 99.9 %
     Extraction speed 6.5 X
     Track quality 100.0 %
     Test CRC 1C9477AF
     Copy CRC 1C9477AF
     Track not present in AccurateRip database
     Copy OK

Track  6

     Filename I:\DL\Rabih Abou-Khalil - Hungry People (2012) [FLAC]\06 - Fish and Chips and Mushy Peas.wav

     Peak level 100.0 %
     Extraction speed 6.1 X
     Track quality 99.9 %
     Test CRC A19484F2
     Copy CRC A19484F2
     Track not present in AccurateRip database
     Copy OK

Track  7

     Filename I:\DL\Rabih Abou-Khalil - Hungry People (2012) [FLAC]\07 - Hats and Cravats.wav

     Peak level 100.0 %
     Extraction speed 7.3 X
     Track quality 100.0 %
     Test CRC 2313A878
     Copy CRC 2313A878
     Track not present in AccurateRip database
     Copy OK

Track  8

     Filename I:\DL\Rabih Abou-Khalil - Hungry People (2012) [FLAC]\08 - When Frankie Shot Lara.wav

     Peak level 100.0 %
     Extraction speed 7.7 X
     Track quality 100.0 %
     Test CRC 1C5196DF
     Copy CRC 1C5196DF
     Track not present in AccurateRip database
     Copy OK

Track  9

     Filename I:\DL\Rabih Abou-Khalil - Hungry People (2012) [FLAC]\09 - If you Should Leave Me....wav

     Peak level 100.0 %
     Extraction speed 7.7 X
     Track quality 99.9 %
     Test CRC CC98D040
     Copy CRC CC98D040
     Track not present in AccurateRip database
     Copy OK

Track 10

     Filename I:\DL\Rabih Abou-Khalil - Hungry People (2012) [FLAC]\10 - Shaving is Boring, Waxing is Painful.wav

     Peak level 100.0 %
     Extraction speed 8.2 X
     Track quality 100.0 %
     Test CRC D2D575F4
     Copy CRC D2D575F4
     Track not present in AccurateRip database
     Copy OK

None of the tracks are present in the AccurateRip database

No errors occurred

End of status report

---- CUETools DB Plugin V2.1.3

[CTDB TOCID: hdS2dxeSr8pGdD3UpMERyzn1zpA-] found, Submit result: hdS2dxeSr8pGdD3UpMERyzn1zpA- has been confirmed
[bb66ebb4] (2/4) Accurately ripped
[c914d4a3] (1/4) No match
[48723e72] (1/4) No match

==== Log checksum F875C02AD655B318EAB2EC3592BA1D0B76852A612F28B8C2D090961640F9E3E2 ====
Содержание индексной карты (.CUE)
REM GENRE Jazz
REM DATE 2012
REM DISCID 930D4C0A
REM COMMENT "ExactAudioCopy v1.0b3"
PERFORMER "Rabih Abou-Khalil"
TITLE "Hungry People"
FILE "01 - Shrilling Chicken.wav" WAVE
  TRACK 01 AUDIO
    TITLE "Shrilling Chicken"
    PERFORMER "Rabih Abou-Khalil"
    ISRC DEQJ11200001
    INDEX 01 00:00:00
FILE "02 - When the Dog Bites.wav" WAVE
  TRACK 02 AUDIO
    TITLE "When the Dog Bites"
    PERFORMER "Rabih Abou-Khalil"
    ISRC DEQJ11200002
    INDEX 01 00:00:00
FILE "03 - A Better Tomorrow.wav" WAVE
  TRACK 03 AUDIO
    TITLE "A Better Tomorrow"
    PERFORMER "Rabih Abou-Khalil"
    ISRC DEQJ11200003
    INDEX 01 00:00:00
FILE "04 - Bankers' Banquet.wav" WAVE
  TRACK 04 AUDIO
    TITLE "Bankers' Banquet"
    PERFORMER "Rabih Abou-Khalil"
    ISRC DEQJ11200004
    INDEX 01 00:00:00
FILE "05 - Dreams of a Dying City.wav" WAVE
  TRACK 05 AUDIO
    TITLE "Dreams of a Dying City"
    PERFORMER "Rabih Abou-Khalil"
    ISRC DEQJ11200005
    INDEX 01 00:00:00
FILE "06 - Fish and Chips and Mushy Peas.wav" WAVE
  TRACK 06 AUDIO
    TITLE "Fish and Chips and Mushy Peas"
    PERFORMER "Rabih Abou-Khalil"
    ISRC DEQJ11200006
    INDEX 01 00:00:00
FILE "07 - Hats and Cravats.wav" WAVE
  TRACK 07 AUDIO
    TITLE "Hats and Cravats"
    PERFORMER "Rabih Abou-Khalil"
    ISRC DEQJ11200007
    INDEX 01 00:00:00
FILE "08 - When Frankie Shot Lara.wav" WAVE
  TRACK 08 AUDIO
    TITLE "When Frankie Shot Lara"
    PERFORMER "Rabih Abou-Khalil"
    ISRC DEQJ11200008
    INDEX 01 00:00:00
FILE "09 - If you Should Leave Me....wav" WAVE
  TRACK 09 AUDIO
    TITLE "If you Should Leave Me..."
    PERFORMER "Rabih Abou-Khalil"
    ISRC DEQJ11200009
    INDEX 01 00:00:00
FILE "10 - Shaving is Boring, Waxing is Painful.wav" WAVE
  TRACK 10 AUDIO
    TITLE "Shaving is Boring, Waxing is Painful"
    PERFORMER "Rabih Abou-Khalil"
    ISRC DEQJ11200010
    INDEX 01 00:00:00
Приватный:
Нет (DHT включён)
Размер:
387.50 Мб (406,327,421 байт) » файлов: 21
Участники:
0 раздают, 0 качают (0 участников всего)
Внешние участники:
5 раздают, 2 качают (7 участников всего) [ Обновить ]
10:20
91
RSS
Нет комментариев. Ваш будет первым!