Поиск

2012 Monica Ramey - Monica Ramey and the Beegie Adair Trio {Adair Music Group} [WEB]

2012 Monica Ramey - Monica Ramey and the Beegie Adair Trio {Adair Music Group} [WEB]
Стили:
Носитель:
CD
Тип рипа:
image
Аудиокодек:
FLAC (*.flac)
Битрейт аудио:
lossless
Время звучания:
01:12:33
Наличие сканов:
web
Страна-производитель диска (релиза):
USA
Релизёр (источник):
M0p94ok
Лог создания рипа
Exact Audio Copy V1.0 beta 3 from 29. August 2011

Отчёт EAC об извлечении, выполненном 3. ноября 2013, 0:57

Monica Ramey and the Beegie Adair Trio / Monica Ramey and the Beegie Adair Trio

Дисковод: _NEC    DVD_RW ND-3540A   Adapter: 0  ID: 0

Режим чтения                 : Достоверность
Использование точного потока : Да
Отключение кэша аудио        : Да
Использование указателей C2  : Нет

Коррекция смещения при чтении                     : 48
Способность читать области Lead-in и Lead-out     : Нет
Заполнение пропущенных сэмплов тишиной            : Да
Удаление блоков с тишиной в начале и конце        : Нет
При вычислениях CRC использовались нулевые сэмплы : Да
Интерфейс                                         : Встроенный Win32-интерфейс для Win NT/2000

Выходной формат          : Пользовательский кодировщик
Выбранный битрейт        : 1024 kBit/s
Качество                 : Высокий
Добавление ID3-тега      : Нет
Утилита сжатия           : G:\Program Files\Exact Audio Copy\Flac\flac.exe
Дополнительные параметры : -V -8 -T "Date=%year%" -T "Genre=%genre%" %source%

TOC извлечённого CD

     Трек |   Старт  | Длительность | Начальный сектор | Конечный сектор
    ---------------------------------------------------------------------
       1  |  0:00.00 |    4:22.62   |           0      |      19711
       2  |  4:22.62 |    5:56.30   |       19712      |      46441
       3  | 10:19.17 |    6:47.67   |       46442      |      77033
       4  | 17:07.09 |    4:10.56   |       77034      |      95839
       5  | 21:17.65 |    3:36.46   |       95840      |     112085
       6  | 24:54.36 |    7:48.01   |      112086      |     147186
       7  | 32:42.37 |    4:08.37   |      147187      |     165823
       8  | 36:50.74 |    5:43.38   |      165824      |     191586
       9  | 42:34.37 |    5:20.38   |      191587      |     215624
      10  | 47:55.00 |    4:44.57   |      215625      |     236981
      11  | 52:39.57 |    5:19.37   |      236982      |     260943
      12  | 57:59.19 |    5:50.26   |      260944      |     287219
      13  | 63:49.45 |    3:49.09   |      287220      |     304403
      14  | 67:38.54 |    4:54.23   |      304404      |     326476

Характеристики диапазона извлечения и сообщения об ошибках

Выбранный диапазон

     Имя файла E:\Monica Ramey and the Beegie Adair Trio - Monica Ramey and the Beegie Adair Trio.wav

     Пиковый уровень 97.7 %
     Скорость извлечения 2.3 X
     Качество диапазона 100.0 %
     CRC теста 5F214A8E
     CRC копии 5F214A8E
     Копирование... OK

Ошибок не произошло

AccurateRip: сводка

Трек  1  : извлечено точно (доверие 1)  [A762CF42]  (AR v2)
Трек  2  : извлечено точно (доверие 1)  [B4A75CA2]  (AR v2)
Трек  3  : извлечено точно (доверие 1)  [991DFA39]  (AR v2)
Трек  4  : извлечено точно (доверие 1)  [CD0626E7]  (AR v2)
Трек  5  : извлечено точно (доверие 1)  [585BDD31]  (AR v2)
Трек  6  : извлечено точно (доверие 1)  [3B31F05D]  (AR v2)
Трек  7  : извлечено точно (доверие 1)  [F6CE601E]  (AR v2)
Трек  8  : извлечено точно (доверие 1)  [52110B72]  (AR v2)
Трек  9  : извлечено точно (доверие 1)  [788CAFDC]  (AR v2)
Трек 10  : извлечено точно (доверие 1)  [62BFE17C]  (AR v2)
Трек 11  : извлечено точно (доверие 1)  [15AFF48C]  (AR v2)
Трек 12  : извлечено точно (доверие 1)  [8A754B84]  (AR v2)
Трек 13  : извлечено точно (доверие 1)  [E538B2D5]  (AR v2)
Трек 14  : извлечено точно (доверие 1)  [22EC4A9D]  (AR v2)

Все треки извлечены точно

Конец отчёта

==== Контрольная сумма отчёта 10EA3E16CDA86C7C428E06783FC17FAA936980BF881398441F75D655E173CF31 ====
Содержание индексной карты (.CUE)
REM GENRE Jazz
REM DATE 2013
REM DISCID C311010E
REM COMMENT "ExactAudioCopy v1.0b3"
PERFORMER "Monica Ramey and the Beegie Adair Trio"
TITLE "Monica Ramey and the Beegie Adair Trio"
FILE "Monica Ramey and the Beegie Adair Trio - Monica Ramey and the Beegie Adair Trio.flac" WAVE
  TRACK 01 AUDIO
    TITLE "As Long As I Live"
    PERFORMER "Monica Ramey and the Beegie Adair Trio"
    INDEX 01 00:00:00
  TRACK 02 AUDIO
    TITLE "I Thought About You"
    PERFORMER "Monica Ramey and the Beegie Adair Trio"
    INDEX 00 04:19:62
    INDEX 01 04:22:62
  TRACK 03 AUDIO
    TITLE "I'll Close My Eyes"
    PERFORMER "Monica Ramey and the Beegie Adair Trio (featuring George Tidwell)"
    INDEX 00 10:17:18
    INDEX 01 10:19:17
  TRACK 04 AUDIO
    TITLE "Witchcraft"
    PERFORMER "Monica Ramey and the Beegie Adair Trio"
    INDEX 00 17:05:12
    INDEX 01 17:07:09
  TRACK 05 AUDIO
    TITLE "This Could Be The Start Of Something Big"
    PERFORMER "Monica Ramey and the Beegie Adair Trio (featuring Denis Solee)"
    INDEX 00 21:14:66
    INDEX 01 21:17:65
  TRACK 06 AUDIO
    TITLE "Change Partners"
    PERFORMER "Monica Ramey and the Beegie Adair Trio (featuring George Tidwell)"
    INDEX 00 24:51:37
    INDEX 01 24:54:36
  TRACK 07 AUDIO
    TITLE "Oh! Look At Me Now"
    PERFORMER "Monica Ramey and the Beegie Adair Trio"
    INDEX 00 32:39:38
    INDEX 01 32:42:37
  TRACK 08 AUDIO
    TITLE "Lullaby Of The Leaves"
    PERFORMER "Monica Ramey and the Beegie Adair Trio (featuring Denis Solee)"
    INDEX 00 36:48:01
    INDEX 01 36:50:74
  TRACK 09 AUDIO
    TITLE "Fly Away"
    PERFORMER "Monica Ramey and the Beegie Adair Trio"
    INDEX 00 42:31:38
    INDEX 01 42:34:37
  TRACK 10 AUDIO
    TITLE "You Fascinate Me So"
    PERFORMER "Monica Ramey and the Beegie Adair Trio (featuring Denis Solee)"
    INDEX 00 47:52:01
    INDEX 01 47:55:00
  TRACK 11 AUDIO
    TITLE "Whisper Not"
    PERFORMER "Monica Ramey and the Beegie Adair Trio"
    INDEX 00 52:36:41
    INDEX 01 52:39:57
  TRACK 12 AUDIO
    TITLE "It Amazes Me"
    PERFORMER "Monica Ramey and the Beegie Adair Trio"
    INDEX 00 57:56:23
    INDEX 01 57:59:19
  TRACK 13 AUDIO
    TITLE "Will You Still Be Mine? "
    PERFORMER "Monica Ramey and the Beegie Adair Trio (featuring George Tidwell and Denis So..."
    INDEX 00 63:47:38
    INDEX 01 63:49:45
  TRACK 14 AUDIO
    TITLE "Why Did I Choose You?"
    PERFORMER "Monica Ramey and the Beegie Adair Trio"
    INDEX 00 67:35:56
    INDEX 01 67:38:54
No seeders - write personal message to M0p94ok. Any questions - support@pro-jazz.com.
Нет сидеров - пишите в личку M0p94ok. Есть вопросы - support@pro-jazz.com
00:56
107
Нет комментариев. Ваш будет первым!