Вы используете незарегистрированную версию компонента "Вкладки"!

Поиск

2012 Iiro Rantala - My History Of Jazz {ACT Music} [24-88,2]

2012 Iiro Rantala - My History Of Jazz {ACT Music} [24-88,2]
Стили:
Издатель (лейбл):
Доп. инфо:

Формат записи/Источник записи: [TR24][OF]
Наличие водяных знаков: Нет
Год издания/переиздания диска: 2012
Продолжительность: 01:00:39
Наличие сканов в содержимом раздачи: Буклет PDF

Контейнер: FLAC (*.flac)
Тип рипа: tracks
Разрядность: 24/88,2
Формат: PCM
Количество каналов: 2.0

Источник: highresaudio.com

Лог проверки качества
foobar2000 1.3.9 / Dynamic Range Meter 1.1.1
log date: 2019-12-16 00:15:34

--------------------------------------------------------------------------------
Analyzed: Iiro Rantala / My History Of Jazz
--------------------------------------------------------------------------------

DR         Peak         RMS     Duration Track
--------------------------------------------------------------------------------
DR12      -0.59 dB   -16.47 dB      4:43 01-Aria / Goldberg Variation No. 1
DR9       -0.10 dB   -11.18 dB      2:56 02-Liza
DR9       -1.46 dB   -13.07 dB      0:53 03-Goldberg Improvisation I
DR10      -0.10 dB   -13.44 dB      6:56 04-Caravan
DR10      -0.10 dB   -13.04 dB      4:18 05-Eronel
DR11      -2.45 dB   -17.07 dB      1:07 06-Goldberg Improvisation II
DR11      -0.10 dB   -14.97 dB      4:30 07-Americans In Paris
DR11      -0.10 dB   -12.86 dB      4:37 08-Bob Hardy
DR11      -0.10 dB   -13.94 dB      1:27 09-Goldberg Improvisation III
DR11      -0.10 dB   -15.83 dB      3:50 10-September Song
DR13      -0.10 dB   -16.86 dB      5:06 11-Danny's Dream
DR11      -0.71 dB   -14.43 dB      1:29 12-Goldberg Improvisation IV
DR9       -0.10 dB   -13.32 dB      4:36 13-Smoothie
DR14      -0.89 dB   -20.41 dB      2:44 14-Goldberg Improvisation V
DR10      -0.10 dB   -12.12 dB      4:35 15-What Comes Up, Must Come Down
DR10      -0.10 dB   -13.06 dB      4:30 16-Uplift
DR13      -0.22 dB   -16.86 dB      2:22 17-Aria
--------------------------------------------------------------------------------

Number of tracks:  17
Official DR value: DR11

Samplerate:        88200 Hz
Channels:          2
Bits per sample:   24
Bitrate:           2581 kbps
Codec:             FLAC
================================================================================
Any questions - support@pro-jazz.com. Есть вопросы - support@pro-jazz.com
12:07
232
Нет комментариев. Ваш будет первым!