Поиск

2012 AHA! Quintet - Freespace {Jazz Compass JC1022}

2012 AHA! Quintet - Freespace {Jazz Compass JC1022}
Стили:
Страна-производитель диска (релиза):
USA
Дата издания диска:
2012
Издатель (лейбл):
Номер по каталогу:
JC1022
Носитель:
CD
Битрейт аудио:
lossless
Аудиокодек:
FLAC (*.flac)
Тип рипа:
tracks+.cue
Время звучания:
01:03:28
Наличие сканов:
  • да
Релизёр (источник):
simple.i

Треклист:

01. Three Hip Mice - 6:12
02. Looking - 5:51
03. Silver Cloud - 6:55
04. Land of Another* - 6:25
05. Fourth Street - 6:26
06. Creepy Crawly - 6:10
07. Slim Jim - 5:40
08. Freespace - 6:24
09. Trio Rio - 7:39
10. Never Never Land* - 5:44

Состав:
  • Steve Allee  — Piano
  • Steve Houghton - Drums
  • Jeremy Allen - Bass
  • Clay Jenkins - Trumpet
  • Bob Sheppard - Tenor & Soprano Saxophones, Flute
Лог создания рипа
Exact Audio Copy V1.0 beta 3 from 29. August 2011

EAC extraction logfile from 4. December 2012, 23:18

AHA! Quintet / Freespace

Used drive  : HL-DT-STDVD-RAM GSA-H55N   Adapter: 0  ID: 2

Read mode               : Secure
Utilize accurate stream : Yes
Defeat audio cache      : Yes
Make use of C2 pointers : No

Read offset correction                      : 102
Overread into Lead-In and Lead-Out          : Yes
Fill up missing offset samples with silence : Yes
Delete leading and trailing silent blocks   : No
Null samples used in CRC calculations       : Yes
Used interface                              : Native Win32 interface for Win NT & 2000
Gap handling                                : Appended to previous track

Used output format              : User Defined Encoder
Selected bitrate                : 128 kBit/s
Quality                         : High
Add ID3 tag                     : No
Command line compressor         : G:\Program Files\Exact Audio Copy\Encoder\flac.exe
Additional command line options : -V -8 -T "Genre=%genre%" -T "Artist=%artist%" -T "Title=%title%" -T "Album=%albumtitle%" -T "Date=%year%" -T "Tracknumber=%tracknr%" -T "Comment=EAC1.0b3 FLAC -8" %source%

TOC of the extracted CD

     Track |   Start  |  Length  | Start sector | End sector
    ---------------------------------------------------------
        1  |  0:00.00 |  6:12.13 |         0    |    27912
        2  |  6:12.13 |  5:51.04 |     27913    |    54241
        3  | 12:03.17 |  6:55.37 |     54242    |    85403
        4  | 18:58.54 |  6:25.26 |     85404    |   114304
        5  | 25:24.05 |  6:26.37 |    114305    |   143291
        6  | 31:50.42 |  6:09.69 |    143292    |   171035
        7  | 38:00.36 |  5:40.22 |    171036    |   196557
        8  | 43:40.58 |  6:24.16 |    196558    |   225373
        9  | 50:04.74 |  7:39.31 |    225374    |   259829
       10  | 57:44.30 |  5:43.61 |    259830    |   285615

Track  1

     Filename F:\WAV\01 - Three Hip Mice [AHA! Quintet].wav

     Pre-gap length  0:00:02.00

     Peak level 96.6 %
     Extraction speed 4.5 X
     Track quality 99.9 %
     Test CRC 639FB96D
     Copy CRC 639FB96D
     Accurately ripped (confidence 1)  [13A8B41E]  (AR v2)
     Copy OK

Track  2

     Filename F:\WAV\02 - Looking [AHA! Quintet].wav

     Pre-gap length  0:00:02.00

     Peak level 96.6 %
     Extraction speed 5.5 X
     Track quality 100.0 %
     Test CRC 235DF2E6
     Copy CRC 235DF2E6
     Accurately ripped (confidence 1)  [D22AED56]  (AR v2)
     Copy OK

Track  3

     Filename F:\WAV\03 - Silver Cloud [AHA! Quintet].wav

     Pre-gap length  0:00:02.00

     Peak level 96.6 %
     Extraction speed 4.7 X
     Track quality 100.0 %
     Test CRC C9B14E58
     Copy CRC C9B14E58
     Accurately ripped (confidence 1)  [22092B73]  (AR v2)
     Copy OK

Track  4

     Filename F:\WAV\04 - Land of Another [AHA! Trio].wav

     Pre-gap length  0:00:02.00

     Peak level 96.6 %
     Extraction speed 5.2 X
     Track quality 100.0 %
     Test CRC 34B479E3
     Copy CRC 34B479E3
     Accurately ripped (confidence 1)  [D3525669]  (AR v2)
     Copy OK

Track  5

     Filename F:\WAV\05 - Fourth Street [AHA! Quintet].wav

     Pre-gap length  0:00:02.00

     Peak level 96.6 %
     Extraction speed 5.6 X
     Track quality 100.0 %
     Test CRC B1B89328
     Copy CRC B1B89328
     Accurately ripped (confidence 1)  [B93DBFCB]  (AR v2)
     Copy OK

Track  6

     Filename F:\WAV\06 - Creepy Crawly [AHA! Quintet].wav

     Pre-gap length  0:00:02.00

     Peak level 96.6 %
     Extraction speed 3.9 X
     Track quality 100.0 %
     Test CRC 14C48A7C
     Copy CRC 14C48A7C
     Accurately ripped (confidence 1)  [E0E173F9]  (AR v2)
     Copy OK

Track  7

     Filename F:\WAV\07 - Slim Jim [AHA! Quintet].wav

     Pre-gap length  0:00:02.00

     Peak level 96.6 %
     Extraction speed 5.8 X
     Track quality 99.9 %
     Test CRC 35127C5D
     Copy CRC 35127C5D
     Accurately ripped (confidence 1)  [6D36439B]  (AR v2)
     Copy OK

Track  8

     Filename F:\WAV\08 - Freespace [AHA! Quintet].wav

     Pre-gap length  0:00:02.00

     Peak level 96.6 %
     Extraction speed 8.4 X
     Track quality 100.0 %
     Test CRC 89014929
     Copy CRC 89014929
     Accurately ripped (confidence 1)  [CAD5F312]  (AR v2)
     Copy OK

Track  9

     Filename F:\WAV\09 - Trio Rio [AHA! Quintet].wav

     Pre-gap length  0:00:02.00

     Peak level 96.6 %
     Extraction speed 8.1 X
     Track quality 100.0 %
     Test CRC EC4EBE49
     Copy CRC EC4EBE49
     Accurately ripped (confidence 1)  [A58BB139]  (AR v2)
     Copy OK

Track 10

     Filename F:\WAV\10 - Never Never Land [AHA! Trio].wav

     Pre-gap length  0:00:02.00

     Peak level 96.6 %
     Extraction speed 3.8 X
     Track quality 100.0 %
     Test CRC 20CF9972
     Copy CRC 20CF9972
     Accurately ripped (confidence 1)  [756ECB1C]  (AR v2)
     Copy OK

All tracks accurately ripped

No errors occurred

End of status report

==== Log checksum 6E0F76128A92A4C406CE855519867046E6AD1C40EA71CF32BD86B8DAA5D87A42 ====
Содержание индексной карты (.CUE)
REM GENRE Jazz
REM DATE 2012
REM DISCID 750EE00A
REM COMMENT "ExactAudioCopy v1.0b3"
PERFORMER "AHA! Quintet"
TITLE "Freespace"
FILE "01 - Three Hip Mice [AHA! Quintet].wav" WAVE
  TRACK 01 AUDIO
    TITLE "Three Hip Mice"
    PERFORMER "AHA! Quintet"
    INDEX 01 00:00:00
  TRACK 02 AUDIO
    TITLE "Looking"
    PERFORMER "AHA! Quintet"
    INDEX 00 06:10:13
FILE "02 - Looking [AHA! Quintet].wav" WAVE
    INDEX 01 00:00:00
  TRACK 03 AUDIO
    TITLE "Silver Cloud"
    PERFORMER "AHA! Quintet"
    INDEX 00 05:49:04
FILE "03 - Silver Cloud [AHA! Quintet].wav" WAVE
    INDEX 01 00:00:00
  TRACK 04 AUDIO
    TITLE "Land of Another"
    PERFORMER "AHA! Trio"
    INDEX 00 06:53:37
FILE "04 - Land of Another [AHA! Trio].wav" WAVE
    INDEX 01 00:00:00
  TRACK 05 AUDIO
    TITLE "Fourth Street"
    PERFORMER "AHA! Quintet"
    INDEX 00 06:23:26
FILE "05 - Fourth Street [AHA! Quintet].wav" WAVE
    INDEX 01 00:00:00
  TRACK 06 AUDIO
    TITLE "Creepy Crawly"
    PERFORMER "AHA! Quintet"
    INDEX 00 06:24:37
FILE "06 - Creepy Crawly [AHA! Quintet].wav" WAVE
    INDEX 01 00:00:00
  TRACK 07 AUDIO
    TITLE "Slim Jim"
    PERFORMER "AHA! Quintet"
    INDEX 00 06:07:69
FILE "07 - Slim Jim [AHA! Quintet].wav" WAVE
    INDEX 01 00:00:00
  TRACK 08 AUDIO
    TITLE "Freespace"
    PERFORMER "AHA! Quintet"
    INDEX 00 05:38:22
FILE "08 - Freespace [AHA! Quintet].wav" WAVE
    INDEX 01 00:00:00
  TRACK 09 AUDIO
    TITLE "Trio Rio"
    PERFORMER "AHA! Quintet"
    INDEX 00 06:22:16
FILE "09 - Trio Rio [AHA! Quintet].wav" WAVE
    INDEX 01 00:00:00
  TRACK 10 AUDIO
    TITLE "Never Never Land"
    PERFORMER "AHA! Trio"
    INDEX 00 07:37:31
FILE "10 - Never Never Land [AHA! Trio].wav" WAVE
    INDEX 01 00:00:00
Приватный:
Нет (DHT включён)
Размер:
420.74 Мб (441,172,793 байт) » файлов: 16
Участники:
0 раздают, 0 качают (0 участников всего)
Внешние участники:
Нет внешних трекеров [ Обновить ]
13:08
45
RSS
Нет комментариев. Ваш будет первым!