Поиск

2011 Iiro Rantala - Lost Heroes {ACT 9504-2}

2011 Iiro Rantala - Lost Heroes {ACT 9504-2}
Стили:
Страна-производитель диска (релиза):
Germany
Дата записи диска:
9-11 ноября 2010
Дата издания диска:
2011
Издатель (лейбл):
Номер по каталогу:
9504-2
Носитель:
CD
Аудиокодек:
FLAC (*.flac)
Тип рипа:
tracks+.cue
Битрейт аудио:
1
Время звучания:
54:16
Релизёр (источник):
TheFriscoFainter

Состав:
  • Siggi Loch    Producer
  • Iiro Rantala    Composer, Liner Notes, Piano
  • Adrian von Ripka    Engineer, Mastering, Mixing

Записано в 

  • FWL Studios, Leipzig
Лог создания рипа
X Lossless Decoder version 20110417 (131.0)
XLD extraction logfile from 2011-04-21 12:08:28 +0300
Iiro Rantala / Lost Heroes
Used drive : MATSHITA DVD-R UJ-857E (revision ZF1E)
Ripper mode : CDParanoia III 10.2
Disable audio cache : OK for the drive with a cache less than 2750KiB
Make use of C2 pointers : NO
Read offset correction : 102
Max retry count : 100
Gap status : Analyzed, Appended
TOC of the extracted CD Track | Start | Length | Start sector | End sector --------------------------------------------------------- 1 | 00:00:00 | 07:38:43 | 0 | 34392 2 | 07:38:43 | 06:07:63 | 34393 | 61980 3 | 13:46:31 | 03:12:28 | 61981 | 76408 4 | 16:58:59 | 05:31:64 | 76409 | 101297 5 | 22:30:48 | 06:31:54 | 101298 | 130676 6 | 29:02:27 | 07:27:40 | 130677 | 164241 7 | 36:29:67 | 03:39:19 | 164242 | 180685 8 | 40:09:11 | 04:12:21 | 180686 | 199606 9 | 44:21:32 | 04:09:10 | 199607 | 218291 10 | 48:30:42 | 05:50:49 | 218292 | 244590
AccurateRip Summary Disc not found in AccurateRip DB.
All Tracks Album gain : -2.34 dB Peak : 0.988525 Statistics Read error : 0 Skipped (treated as error) : 0 Edge jitter error (maybe fixed) : 1 Atom jitter error (maybe fixed) : 1 Drift error (maybe fixed) : 0 Dropped bytes error (maybe fixed) : 0 Duplicated bytes error (maybe fixed) : 0
Track 01 Filename : /Users/jk/01 Iiro Rantala - Pekka Pohjola.flac Pre-gap length : 00:02:00 Track gain : -3.62 dB Peak : 0.988525 CRC32 hash (test run) : 2D4559DA CRC32 hash : 2D4559DA CRC32 hash (skip zero) : 01843BD3 AccurateRip signature : 9BE7A105 ->Track not present in AccurateRip database. Statistics Read error : 0 Skipped (treated as error) : 0 Edge jitter error (maybe fixed) : 0 Atom jitter error (maybe fixed) : 0 Drift error (maybe fixed) : 0 Dropped bytes error (maybe fixed) : 0 Duplicated bytes error (maybe fixed) : 0 Inconsistency in error sectors : 0
Track 02 Filename : /Users/jk/02 Iiro Rantala - Waltz For Bill.flac Pre-gap length : 00:02:26 Track gain : -1.09 dB Peak : 0.988525 CRC32 hash (test run) : 0B08B104 CRC32 hash : 0B08B104 CRC32 hash (skip zero) : 2436820E AccurateRip signature : CEF7BEE0 ->Track not present in AccurateRip database. Statistics Read error : 0 Skipped (treated as error) : 0 Edge jitter error (maybe fixed) : 0 Atom jitter error (maybe fixed) : 0 Drift error (maybe fixed) : 0 Dropped bytes error (maybe fixed) : 0 Duplicated bytes error (maybe fixed) : 0 Inconsistency in error sectors : 0
Track 03 Filename : /Users/jk/03 Iiro Rantala - Can't Get Up.flac Pre-gap length : 00:03:46 Track gain : 0.02 dB Peak : 0.988495 CRC32 hash (test run) : DC584E9A CRC32 hash : DC584E9A CRC32 hash (skip zero) : CC084A71 AccurateRip signature : 5C5E416C ->Track not present in AccurateRip database. Statistics Read error : 0 Skipped (treated as error) : 0 Edge jitter error (maybe fixed) : 0 Atom jitter error (maybe fixed) : 0 Drift error (maybe fixed) : 0 Dropped bytes error (maybe fixed) : 0 Duplicated bytes error (maybe fixed) : 0 Inconsistency in error sectors : 0
Track 04 Filename : /Users/jk/04 Iiro Rantala - Tears For Esbjörn.flac Pre-gap length : 00:04:11 Track gain : -0.65 dB Peak : 0.988525 CRC32 hash (test run) : 86249E5D CRC32 hash : 86249E5D CRC32 hash (skip zero) : 727AE927 AccurateRip signature : AE36A2F9 ->Track not present in AccurateRip database. Statistics Read error : 0 Skipped (treated as error) : 0 Edge jitter error (maybe fixed) : 0 Atom jitter error (maybe fixed) : 0 Drift error (maybe fixed) : 0 Dropped bytes error (maybe fixed) : 0 Duplicated bytes error (maybe fixed) : 0 Inconsistency in error sectors : 0
Track 05 Filename : /Users/jk/05 Iiro Rantala - Thinking Of Misty.flac Pre-gap length : 00:03:39 Track gain : -4.69 dB Peak : 0.988525 CRC32 hash (test run) : 44D85ED4 CRC32 hash : 44D85ED4 CRC32 hash (skip zero) : 285C3D39 AccurateRip signature : CE19E7FC ->Track not present in AccurateRip database. Statistics Read error : 0 Skipped (treated as error) : 0 Edge jitter error (maybe fixed) : 0 Atom jitter error (maybe fixed) : 0 Drift error (maybe fixed) : 0 Dropped bytes error (maybe fixed) : 0 Duplicated bytes error (maybe fixed) : 0 Inconsistency in error sectors : 0
Track 06 Filename : /Users/jk/06 Iiro Rantala - Jean And Aino.flac Pre-gap length : 00:03:00 Track gain : -3.18 dB Peak : 0.988525 CRC32 hash (test run) : 05601595 CRC32 hash : 05601595 CRC32 hash (skip zero) : 2BCA777C AccurateRip signature : 452E2C7E ->Track not present in AccurateRip database. Statistics Read error : 0 Skipped (treated as error) : 0 Edge jitter error (maybe fixed) : 0 Atom jitter error (maybe fixed) : 0 Drift error (maybe fixed) : 0 Dropped bytes error (maybe fixed) : 0 Duplicated bytes error (maybe fixed) : 0 Inconsistency in error sectors : 0
Track 07 Filename : /Users/jk/07 Iiro Rantala - Donna Lee.flac Pre-gap length : 00:05:40 Track gain : -1.66 dB Peak : 0.988495 CRC32 hash (test run) : 11357D1E CRC32 hash : 11357D1E CRC32 hash (skip zero) : C54FE6A8 AccurateRip signature : 4F5DE24F ->Track not present in AccurateRip database. Statistics Read error : 0 Skipped (treated as error) : 0 Edge jitter error (maybe fixed) : 0 Atom jitter error (maybe fixed) : 0 Drift error (maybe fixed) : 0 Dropped bytes error (maybe fixed) : 0 Duplicated bytes error (maybe fixed) : 0 Inconsistency in error sectors : 0
Track 08 Filename : /Users/jk/08 Iiro Rantala - One More Waltz For Michel Petrucciani.flac Pre-gap length : 00:02:53 Track gain : 0.93 dB Peak : 0.825958 CRC32 hash (test run) : 5871D484 CRC32 hash : 5871D484 CRC32 hash (skip zero) : A78361C9 AccurateRip signature : 16A65880 ->Track not present in AccurateRip database. Statistics Read error : 0 Skipped (treated as error) : 0 Edge jitter error (maybe fixed) : 1 Atom jitter error (maybe fixed) : 1 Drift error (maybe fixed) : 0 Dropped bytes error (maybe fixed) : 0 Duplicated bytes error (maybe fixed) : 0 Inconsistency in error sectors : 0
Track 09 Filename : /Users/jk/09 Iiro Rantala - Bluesette.flac Pre-gap length : 00:03:48 Track gain : 0.34 dB Peak : 0.972473 CRC32 hash (test run) : A99AEB0E CRC32 hash : A99AEB0E CRC32 hash (skip zero) : 5F22DB90 AccurateRip signature : 92BEC3D0 ->Track not present in AccurateRip database. Statistics Read error : 0 Skipped (treated as error) : 0 Edge jitter error (maybe fixed) : 0 Atom jitter error (maybe fixed) : 0 Drift error (maybe fixed) : 0 Dropped bytes error (maybe fixed) : 0 Duplicated bytes error (maybe fixed) : 0 Inconsistency in error sectors : 0
Track 10 Filename : /Users/jk/10 Iiro Rantala - Intermezzo.flac Pre-gap length : 00:04:49 Track gain : 0.63 dB Peak : 0.988525 CRC32 hash (test run) : 14124D9B CRC32 hash : 14124D9B CRC32 hash (skip zero) : 47A1D8F6 AccurateRip signature : 3C8E7D1B ->Track not present in AccurateRip database. Statistics Read error : 0 Skipped (treated as error) : 0 Edge jitter error (maybe fixed) : 0 Atom jitter error (maybe fixed) : 0 Drift error (maybe fixed) : 0 Dropped bytes error (maybe fixed) : 0 Duplicated bytes error (maybe fixed) : 0 Inconsistency in error sectors : 0
No errors occurred
End of status report
Содержание индексной карты (.CUE)
TITLE "Lost Heroes"
PERFORMER "Iiro Rantala"
CATALOG 0614427950421
REM GENRE "Jazz"
REM DATE "2011"
REM DISCID 700CBD0A
FILE "01 Iiro Rantala - Pekka Pohjola.wav" WAVE TRACK 01 AUDIO TITLE "Pekka Pohjola" ISRC DEA891100300 FLAGS DCP INDEX 01 00:00:00 TRACK 02 AUDIO TITLE "Waltz For Bill" ISRC DEA891100301 FLAGS DCP INDEX 00 07:36:17
FILE "02 Iiro Rantala - Waltz For Bill.wav" WAVE INDEX 01 00:00:00 TRACK 03 AUDIO TITLE "Can't Get Up" ISRC DEA891100302 FLAGS DCP INDEX 00 06:04:17
FILE "03 Iiro Rantala - Can't Get Up.wav" WAVE INDEX 01 00:00:00 TRACK 04 AUDIO TITLE "Tears For Esbjörn" ISRC DEA891100303 FLAGS DCP INDEX 00 03:08:17
FILE "04 Iiro Rantala - Tears For Esbjörn.wav" WAVE INDEX 01 00:00:00 TRACK 05 AUDIO TITLE "Thinking Of Misty" ISRC DEA891100304 FLAGS DCP INDEX 00 05:28:25
FILE "05 Iiro Rantala - Thinking Of Misty.wav" WAVE INDEX 01 00:00:00 TRACK 06 AUDIO TITLE "Jean And Aino" ISRC DEA891100305 FLAGS DCP INDEX 00 06:28:54
FILE "06 Iiro Rantala - Jean And Aino.wav" WAVE INDEX 01 00:00:00 TRACK 07 AUDIO TITLE "Donna Lee" ISRC DEA891100306 FLAGS DCP INDEX 00 07:22:00
FILE "07 Iiro Rantala - Donna Lee.wav" WAVE INDEX 01 00:00:00 TRACK 08 AUDIO TITLE "One More Waltz For Michel Petrucciani" ISRC DEA891100307 FLAGS DCP INDEX 00 03:36:41
FILE "08 Iiro Rantala - One More Waltz For Michel Petrucciani.wav" WAVE INDEX 01 00:00:00 TRACK 09 AUDIO TITLE "Bluesette" ISRC DEA891100308 FLAGS DCP INDEX 00 04:08:48
FILE "09 Iiro Rantala - Bluesette.wav" WAVE INDEX 01 00:00:00 TRACK 10 AUDIO TITLE "Intermezzo" ISRC DEA891100309 FLAGS DCP INDEX 00 04:04:36
FILE "10 Iiro Rantala - Intermezzo.wav" WAVE INDEX 01 00:00:00
Приватный:
Нет (DHT включён)
Размер:
149.51 Мб (156,768,912 байт) » файлов: 13
Участники:
0 раздают, 0 качают (0 участников всего)
Внешние участники:
11 раздают, 4 качают (15 участников всего) [ Обновить ]
23:48
209
Нет комментариев. Ваш будет первым!