Вы используете незарегистрированную версию компонента "Вкладки"!

Поиск

2011 Herbie Mann - All That Jazz, Vol. 136: Fascinating Flutes (2021) {Jube Legends} [24-48]

2011 Herbie Mann - All That Jazz, Vol. 136: Fascinating Flutes (2021) {Jube Legends} [24-48]
Дата переиздания диска:
5 марта 2021
Битрейт аудио:
lossless
Доп. инфо:

Формат записи/Источник записи: [TR24][OF]
Издание: Remastered
Год издания/переиздания диска: 2021
Издатель (лейбл): Jube Legends
Продолжительность: 01:09:38
Наличие сканов в содержимом раздачи: Нет

Контейнер: FLAC (*.flac)
Тип рипа: tracks
Разрядность: 24/48
Количество каналов: 2.0

Источник (релизер): Qobuz

Лог проверки качества
foobar2000 1.4.3 / Dynamic Range Meter 1.1.1
log date: 2021-04-10 17:12:50

--------------------------------------------------------------------------------
Analyzed: Herbie Mann & Sam Most Quintet / All That Jazz, Vol. 136: Herbie Mann – Fascinating Flutes (1-5)
          Herbie Mann Quartet / All That Jazz, Vol. 136: Herbie Mann – Fascinating Flutes (6-15)
          Herbie Mann / All That Jazz, Vol. 136: Herbie Mann – Fascinating Flutes (16-21)
--------------------------------------------------------------------------------

DR         Peak         RMS     Duration Track
--------------------------------------------------------------------------------
DR8       -0.03 dB    -9.35 dB      3:50 04-Fascinating Rhythm
DR11      -0.03 dB   -14.20 dB      5:00 05-I'll Remember April
DR13      -0.03 dB   -16.82 dB      3:12 17-It Might as Well Be Spring
DR14      -0.03 dB   -17.48 dB      2:10 20-Love Letters
DR12      -0.03 dB   -15.63 dB      4:54 21-Seven Come Eleven
DR9       -0.03 dB   -11.42 dB      4:03 01-After Work
DR11      -0.03 dB   -13.62 dB      2:57 02-Chicken Little
DR9       -0.03 dB   -12.58 dB      2:40 06-Flamingo
DR12      -0.03 dB   -14.88 dB      2:38 08-My Little Suede Shoes
DR11      -0.03 dB   -13.03 dB      3:33 09-Deep Night
DR13      -0.03 dB   -16.09 dB      2:36 11-The Surrey with the Fringe on Top
DR13      -0.03 dB   -16.32 dB      2:01 13-Strike Up the Band
DR15      -0.03 dB   -17.78 dB      3:18 16-Hurry Burry
DR12      -0.03 dB   -14.43 dB      2:53 18-Woodchuck
DR12      -0.03 dB   -14.20 dB      3:22 19-Little Orphan Annie
DR10      -0.03 dB   -11.99 dB      2:02 03-Peanut Vendor
DR11      -0.03 dB   -14.81 dB      2:00 07-Fife 'n Tambourine Corps
DR8       -0.03 dB   -10.64 dB      4:17 10-Autumn Nocturne
DR12      -0.03 dB   -15.13 dB      2:55 12-Stardust
DR15      -0.03 dB   -16.11 dB      2:49 14-Baía
DR14      -0.03 dB   -17.33 dB      6:35 15-You Stepped Out of a Dream
--------------------------------------------------------------------------------

Number of tracks:  21
Official DR value: DR12

Samplerate:        48000 Hz
Channels:          2
Bits per sample:   24
Bitrate:           765 kbps
Codec:             FLAC
================================================================================
Any questions - support@pro-jazz.com. Есть вопросы - support@pro-jazz.com
18:28
104
Нет комментариев. Ваш будет первым!