Поиск

2011 Adam Rafferty - I Remember Michael (A Michael Jackson Solo Guitar Tribute) {Crescent Ridge CRP-103}

2011 Adam Rafferty - I Remember Michael (A Michael Jackson Solo Guitar Tribute) {Crescent Ridge CRP-103}
Стили:
Дата издания диска:
2011
Издатель (лейбл):
Номер по каталогу:
CRP-103
Носитель:
CD
Тип рипа:
tracks+.cue
Аудиокодек:
FLAC (*.flac)
Битрейт аудио:
1
Время звучания:
00:55:50
Страна-производитель диска (релиза):
USA
Треклист:

01    I Want You Back (3:02)
02    Rock With You (3:15)
03    Human Nature (3:51)
04    The Way You Make Me Feel (4:38)
05    I'll Be There (4:46)
06    Thriller (4:28)
07    Liberian Girl (3:16)
08    ABC (2:59)
09    Ben (3:04)
10    Don't Stop till You Get Enough (3:45)
11    Lady In My Life (3:29)
12    Billie Jean (3:34)
13    She's Out of My Life (3:37)
14    Off the Wall (3:30)
15    Man In the Mirror (4:27)

Лог создания рипа
Exact Audio Copy V1.0 beta 1 from 15. November 2010

EAC extraction logfile from 1. September 2011, 8:30

Adam Rafferty / I Remeber Michael

Used drive  : PIONEER DVDRW   DVR-K17B   Adapter: 1  ID: 0

Read mode               : Secure
Utilize accurate stream : Yes
Defeat audio cache      : Yes
Make use of C2 pointers : No

Read offset correction                      : 48
Overread into Lead-In and Lead-Out          : No
Fill up missing offset samples with silence : Yes
Delete leading and trailing silent blocks   : No
Null samples used in CRC calculations       : No
Used interface                              : Native Win32 interface for Win NT & 2000
Gap handling                                : Appended to previous track

Used output format              : User Defined Encoder
Selected bitrate                : 192 kBit/s
Quality                         : High
Add ID3 tag                     : No
Command line compressor         : C:\Program Files\Exact Audio Copy\FLAC\FLAC.EXE
Additional command line options : -V -8 -T "artist=%a" -T "title=%t" -T "album=%g" -T "date=%y" -T "tracknumber=%n" -T "genre=%m" %s

TOC of the extracted CD

     Track |   Start  |  Length  | Start sector | End sector
    ---------------------------------------------------------
        1  |  0:00.00 |  3:02.65 |         0    |    13714
        2  |  3:02.65 |  3:15.32 |     13715    |    28371
        3  |  6:18.22 |  3:51.63 |     28372    |    45759
        4  | 10:10.10 |  4:38.65 |     45760    |    66674
        5  | 14:49.00 |  4:46.54 |     66675    |    88178
        6  | 19:35.54 |  4:28.21 |     88179    |   108299
        7  | 24:04.00 |  3:16.15 |    108300    |   123014
        8  | 27:20.15 |  2:59.70 |    123015    |   136509
        9  | 30:20.10 |  3:04.07 |    136510    |   150316
       10  | 33:24.17 |  3:45.58 |    150317    |   167249
       11  | 37:10.00 |  3:29.12 |    167250    |   182936
       12  | 40:39.12 |  3:34.53 |    182937    |   199039
       13  | 44:13.65 |  3:37.20 |    199040    |   215334
       14  | 47:51.10 |  3:30.62 |    215335    |   231146
       15  | 51:21.72 |  4:27.50 |    231147    |   251221

Track  1

     Filename C:\New Folder\Adam Rafferty - 2011 - I Remeber Michael [FLAC]\01 - I Want You Back.wav

     Pre-gap length  0:00:02.00

     Peak level 96.0 %
     Extraction speed 1.9 X
     Track quality 100.0 %
     Test CRC DC9B5652
     Copy CRC DC9B5652
     Track not present in AccurateRip database
     Copy OK

Track  2

     Filename C:\New Folder\Adam Rafferty - 2011 - I Remeber Michael [FLAC]\02 - Rock with You.wav

     Peak level 93.3 %
     Extraction speed 2.1 X
     Track quality 100.0 %
     Test CRC 5D828FEA
     Copy CRC 5D828FEA
     Track not present in AccurateRip database
     Copy OK

Track  3

     Filename C:\New Folder\Adam Rafferty - 2011 - I Remeber Michael [FLAC]\03 - Human Nature.wav

     Pre-gap length  0:00:00.17

     Peak level 97.3 %
     Extraction speed 2.3 X
     Track quality 100.0 %
     Test CRC 2795457E
     Copy CRC 2795457E
     Track not present in AccurateRip database
     Copy OK

Track  4

     Filename C:\New Folder\Adam Rafferty - 2011 - I Remeber Michael [FLAC]\04 - The Way You Make Me Feel.wav

     Peak level 95.5 %
     Extraction speed 2.6 X
     Track quality 100.0 %
     Test CRC 32CF8C0E
     Copy CRC 32CF8C0E
     Track not present in AccurateRip database
     Copy OK

Track  5

     Filename C:\New Folder\Adam Rafferty - 2011 - I Remeber Michael [FLAC]\05 - I'll Be There.wav

     Pre-gap length  0:00:01.18

     Peak level 98.4 %
     Extraction speed 2.8 X
     Track quality 100.0 %
     Test CRC 13168AEC
     Copy CRC 13168AEC
     Track not present in AccurateRip database
     Copy OK

Track  6

     Filename C:\New Folder\Adam Rafferty - 2011 - I Remeber Michael [FLAC]\06 - Thriller.wav

     Peak level 91.9 %
     Extraction speed 2.6 X
     Track quality 99.9 %
     Test CRC 98E5C486
     Copy CRC 98E5C486
     Track not present in AccurateRip database
     Copy OK

Track  7

     Filename C:\New Folder\Adam Rafferty - 2011 - I Remeber Michael [FLAC]\07 - Liberian Girl.wav

     Pre-gap length  0:00:01.00

     Peak level 100.0 %
     Extraction speed 2.9 X
     Track quality 100.0 %
     Test CRC 5DC97C8C
     Copy CRC 5DC97C8C
     Track not present in AccurateRip database
     Copy OK

Track  8

     Filename C:\New Folder\Adam Rafferty - 2011 - I Remeber Michael [FLAC]\08 - ABC.wav

     Peak level 95.7 %
     Extraction speed 3.0 X
     Track quality 100.0 %
     Test CRC 65B6CA3E
     Copy CRC 65B6CA3E
     Track not present in AccurateRip database
     Copy OK

Track  9

     Filename C:\New Folder\Adam Rafferty - 2011 - I Remeber Michael [FLAC]\09 - Ben.wav

     Pre-gap length  0:00:01.03

     Peak level 100.0 %
     Extraction speed 3.1 X
     Track quality 100.0 %
     Test CRC 7D0E47FB
     Copy CRC 7D0E47FB
     Track not present in AccurateRip database
     Copy OK

Track 10

     Filename C:\New Folder\Adam Rafferty - 2011 - I Remeber Michael [FLAC]\10 - Don't Stop Till You Get Enough.wav

     Peak level 91.0 %
     Extraction speed 2.9 X
     Track quality 99.9 %
     Test CRC 6FBB53A8
     Copy CRC 6FBB53A8
     Track not present in AccurateRip database
     Copy OK

Track 11

     Filename C:\New Folder\Adam Rafferty - 2011 - I Remeber Michael [FLAC]\11 - Lady in My Life.wav

     Pre-gap length  0:00:01.15

     Peak level 96.1 %
     Extraction speed 3.4 X
     Track quality 100.0 %
     Test CRC E81DDA26
     Copy CRC E81DDA26
     Track not present in AccurateRip database
     Copy OK

Track 12

     Filename C:\New Folder\Adam Rafferty - 2011 - I Remeber Michael [FLAC]\12 - Billie Jean.wav

     Peak level 95.8 %
     Extraction speed 3.5 X
     Track quality 100.0 %
     Test CRC C531EA1D
     Copy CRC C531EA1D
     Track not present in AccurateRip database
     Copy OK

Track 13

     Filename C:\New Folder\Adam Rafferty - 2011 - I Remeber Michael [FLAC]\13 - She's Out of My Life.wav

     Pre-gap length  0:00:01.55

     Peak level 98.8 %
     Extraction speed 3.6 X
     Track quality 100.0 %
     Test CRC 5551728B
     Copy CRC 5551728B
     Track not present in AccurateRip database
     Copy OK

Track 14

     Filename C:\New Folder\Adam Rafferty - 2011 - I Remeber Michael [FLAC]\14 - Off the Wall.wav

     Peak level 98.5 %
     Extraction speed 3.2 X
     Track quality 99.9 %
     Test CRC E7D3F4E6
     Copy CRC E7D3F4E6
     Track not present in AccurateRip database
     Copy OK

Track 15

     Filename C:\New Folder\Adam Rafferty - 2011 - I Remeber Michael [FLAC]\15 - Man in the Mirror.wav

     Pre-gap length  0:00:00.55

     Peak level 100.0 %
     Extraction speed 3.4 X
     Track quality 99.9 %
     Test CRC 08C0A8EC
     Copy CRC 08C0A8EC
     Track not present in AccurateRip database
     Copy OK

None of the tracks are present in the AccurateRip database

No errors occurred

End of status report
Содержание индексной карты (.CUE)
REM GENRE Funk
REM DATE 2011
REM DISCID BE0D150F
REM COMMENT "ExactAudioCopy v1.0b1"
PERFORMER "Adam Rafferty"
TITLE "I Remeber Michael"
FILE "01 - I Want You Back.flac" WAVE
  TRACK 01 AUDIO
    TITLE "I Want You Back"
    INDEX 01 00:00:00
FILE "02 - Rock with You.flac" WAVE
  TRACK 02 AUDIO
    TITLE "Rock with You"
    INDEX 01 00:00:00
FILE "03 - Human Nature.flac" WAVE
  TRACK 03 AUDIO
    TITLE "Human Nature"
    INDEX 01 00:00:00
FILE "04 - The Way You Make Me Feel.flac" WAVE
  TRACK 04 AUDIO
    TITLE "The Way You Make Me Feel"
    INDEX 01 00:00:00
FILE "05 - I'll Be There.flac" WAVE
  TRACK 05 AUDIO
    TITLE "I'll Be There"
    INDEX 01 00:00:00
FILE "06 - Thriller.flac" WAVE
  TRACK 06 AUDIO
    TITLE "Thriller"
    INDEX 01 00:00:00
FILE "07 - Liberian Girl.flac" WAVE
  TRACK 07 AUDIO
    TITLE "Liberian Girl"
    INDEX 01 00:00:00
FILE "08 - ABC.flac" WAVE
  TRACK 08 AUDIO
    TITLE "ABC"
    INDEX 01 00:00:00
FILE "09 - Ben.flac" WAVE
  TRACK 09 AUDIO
    TITLE "Ben"
    INDEX 01 00:00:00
FILE "10 - Don't Stop Till You Get Enough.flac" WAVE
  TRACK 10 AUDIO
    TITLE "Don't Stop Till You Get Enough"
    INDEX 01 00:00:00
FILE "11 - Lady in My Life.flac" WAVE
  TRACK 11 AUDIO
    TITLE "Lady in My Life"
    INDEX 01 00:00:00
FILE "12 - Billie Jean.flac" WAVE
  TRACK 12 AUDIO
    TITLE "Billie Jean"
    INDEX 01 00:00:00
FILE "13 - She's Out of My Life.flac" WAVE
  TRACK 13 AUDIO
    TITLE "She's Out of My Life"
    INDEX 01 00:00:00
FILE "14 - Off the Wall.flac" WAVE
  TRACK 14 AUDIO
    TITLE "Off the Wall"
    INDEX 01 00:00:00
FILE "15 - Man in the Mirror.flac" WAVE
  TRACK 15 AUDIO
    TITLE "Man in the Mirror"
    INDEX 01 00:00:00
Лог проверки качества
AUDIOCHECKER v2.0 beta (build 457) - by Dester - opdester@freemail.hu
~~~~~~~~~~~~~~~~~~~~~~~~~~~~~~~~~~
-=== НЕ РЕДАКТИРУЙТЕ ЭТОТ ФАЙЛ! ===-

Путь: ...\Adam Rafferty - 2011 - I Remeber Michael [FLAC]

01 -=- 01 - I Want You Back.flac -=- CDDA (100%)
02 -=- 02 - Rock with You.flac -=- CDDA (100%)
03 -=- 03 - Human Nature.flac -=- CDDA (100%)
04 -=- 04 - The Way You Make Me Feel.flac -=- CDDA (100%)
05 -=- 05 - I'll Be There.flac -=- CDDA (100%)
06 -=- 06 - Thriller.flac -=- CDDA (100%)
07 -=- 07 - Liberian Girl.flac -=- CDDA (100%)
08 -=- 08 - ABC.flac -=- CDDA (100%)
09 -=- 09 - Ben.flac -=- CDDA (99%)
10 -=- 10 - Don't Stop Till You Get Enough.flac -=- CDDA (100%)
11 -=- 11 - Lady in My Life.flac -=- CDDA (100%)
12 -=- 12 - Billie Jean.flac -=- CDDA (99%)
13 -=- 13 - She's Out of My Life.flac -=- CDDA (99%)
14 -=- 14 - Off the Wall.flac -=- CDDA (100%)
15 -=- 15 - Man in the Mirror.flac -=- CDDA (100%)

Сводка 99,80% CDDA

53298900
Приватный:
Нет (DHT включён)
Размер:
280.27 Мб (293,881,150 байт) » файлов: 19
Участники:
0 раздают, 1 качают (1 участников всего)
Внешние участники:
1 раздают, 0 качают (1 участников всего) [ Обновить ]
Скорость:
709.13 Кб/c 0/c
No seeders - write a personal message to user M0p94ok. Нет сидеров - пишите личное сообщение пользователю M0p94ok.
15:09
557
Нет комментариев. Ваш будет первым!