Поиск

2010 George Adams & Don Pullen Quartet - Live At Montmartre {Timeless TJL 74501}

2010 George Adams & Don Pullen Quartet - Live At Montmartre {Timeless TJL 74501}
Стили:
Страна-производитель диска (релиза):
USA
Дата записи диска:
4-5 апреля 1985
Дата издания диска:
2010
Издатель (лейбл):
Номер по каталогу:
TJL 74501
Носитель:
CD
Битрейт аудио:
lossless
Аудиокодек:
FLAC (*.flac)
Тип рипа:
image+.cue
Время звучания:
50:20
Наличие сканов:
  • да
Релизёр (источник):
igorku2

Треклист:

1 I.J. Scofield 8:07
2 Flame Games Adams 11:30
3 Well, I Guess We'll Never Know Pullen 8:27
4 Forever Lovers Adams 10:53
5 Song Everlasting Pullen 11:23

Состав:

Recording Location

  • Jazzhus, Montmartre, France
Лог создания рипа
Exact Audio Copy V0.99 prebeta 5 from 4. May 2009

EAC extraction logfile from 1. December 2010, 17:48

George Adams & Don Pullen Quartet / Live At Montmartre

Used drive  : HL-DT-STDVDRAM GH22NS50   Adapter: 2  ID: 0

Read mode               : Secure
Utilize accurate stream : Yes
Defeat audio cache      : Yes
Make use of C2 pointers : No

Read offset correction                      : 667
Overread into Lead-In and Lead-Out          : No
Fill up missing offset samples with silence : Yes
Delete leading and trailing silent blocks   : No
Null samples used in CRC calculations       : Yes
Used interface                              : Native Win32 interface for Win NT & 2000

Used output format              : User Defined Encoder
Selected bitrate                : 768 kBit/s
Quality                         : High
Add ID3 tag                     : No
Command line compressor         : C:\Program Files\Exact Audio Copy\FLAC\FLAC.EXE
Additional command line options : -8 -V %s

TOC of the extracted CD

     Track |   Start  |  Length  | Start sector | End sector
    ---------------------------------------------------------
        1  |  0:00.00 |  8:07.08 |         0    |    36532
        2  |  8:07.08 | 11:30.73 |     36533    |    88355
        3  | 19:38.06 |  8:27.01 |     88356    |   126381
        4  | 28:05.07 | 10:53.74 |    126382    |   175430
        5  | 38:59.06 | 11:24.00 |    175431    |   226730

Range status and errors

Selected range

     Filename C:\Users\User\Music\George Adams & Don Pullen Quartet - Live At Montmartre.wav

     Peak level 99.2 %
     Range quality 100.0 %
     Copy CRC 7E4FF13C
     Copy OK

No errors occurred

AccurateRip summary

Track  1  not present in database
Track  2  not present in database
Track  3  not present in database
Track  4  not present in database
Track  5  not present in database

None of the tracks are present in the AccurateRip database

End of status report
Содержание индексной карты (.CUE)
REM GENRE Jazz
REM DATE 1985
REM DISCID 410BCF05
REM COMMENT "ExactAudioCopy v0.99pb5"
PERFORMER "George Adams & Don Pullen Quartet"
TITLE "Live At Montmartre"
FILE "George Adams & Don Pullen Quartet - Live At Montmartre.flac" WAVE
  TRACK 01 AUDIO
    TITLE "I.J. (Live)"
    PERFORMER "George Adams & Don Pullen Quartet"
    INDEX 01 00:00:00
  TRACK 02 AUDIO
    TITLE "Flame Games (Live)"
    PERFORMER "George Adams & Don Pullen Quartet"
    INDEX 00 08:03:47
    INDEX 01 08:07:08
  TRACK 03 AUDIO
    TITLE "Well, I Guess We'll Never Know (Live)"
    PERFORMER "George Adams & Don Pullen Quartet"
    INDEX 00 19:35:26
    INDEX 01 19:38:06
  TRACK 04 AUDIO
    TITLE "Forever Lovers (Live)"
    PERFORMER "George Adams & Don Pullen Quartet"
    INDEX 01 28:05:07
  TRACK 05 AUDIO
    TITLE "Song Everlasting (Live)"
    PERFORMER "George Adams & Don Pullen Quartet"
    INDEX 00 38:55:47
    INDEX 01 38:59:06
16:14
56
RSS
Нет комментариев. Ваш будет первым!