Поиск

2009 Adam Rafferty - Chameleon {Crescent Ridge 17804}

2009 Adam Rafferty - Chameleon {Crescent Ridge 17804}
Стили:
Дата издания диска:
2009
Издатель (лейбл):
Номер по каталогу:
17804
Носитель:
CD
Аудиокодек:
FLAC (*.flac)
Тип рипа:
tracks+.cue
Битрейт аудио:
1
Время звучания:
00:53:47
Релизёр (источник):
vxo
Треклист:

01. Fernando's Banjo (2:36)
02. Mas Que Nada (3:34)
03. Got To Get You Into My Life (2:53)
04. Eleanor Rigby (3:51)
05. The Boogie Man (4:11)
06. Ciao Bella (4:40)
07. Billy Jean (3:26)
08. Sweet Georgia Brown (2:56)
09. I Can't Make You Love Me (4:03)
10. Chameleon (3:44)
11. Tinkerbell's Dream (4:37)
12. Shelter Island (2:09)
13. Harlem (4:17)
14. Little Fingers (2:43)
15. Someone To Watch Over Me (4:06)

Лог создания рипа
X Lossless Decoder version 20090910 (109.7)

XLD extraction logfile from 2009-09-14 20:20:13 -0400

Adam Rafferty / Chameleon

Used drive : PIONEER DVD-RW  DVR-K06A (revision Q624)

Use cdparanoia mode     : YES (CDParanoia III 10.2 engine)
Disable audio cache     : OK for the drive with cache less than 2750KB
Make use of C2 pointers : NO
Read offset correction  : 48
Max retry count         : 100

TOC of the extracted CD
     Track |   Start  |  Length  | Start sector | End sector
    ---------------------------------------------------------
        1  | 00:00:00 | 02:36:12 |         0    |    11711
        2  | 02:36:12 | 03:34:23 |     11712    |    27784
        3  | 06:10:35 | 02:53:05 |     27785    |    40764
        4  | 09:03:40 | 03:50:70 |     40765    |    58084
        5  | 12:54:35 | 04:11:10 |     58085    |    76919
        6  | 17:05:45 | 04:40:25 |     76920    |    97944
        7  | 21:45:70 | 03:25:67 |     97945    |   113386
        8  | 25:11:62 | 02:55:58 |    113387    |   126569
        9  | 28:07:45 | 04:03:35 |    126570    |   144829
       10  | 32:11:05 | 03:44:15 |    144830    |   161644
       11  | 35:55:20 | 04:37:20 |    161645    |   182439
       12  | 40:32:40 | 02:08:52 |    182440    |   192091
       13  | 42:41:17 | 04:16:65 |    192092    |   211356
       14  | 46:58:07 | 02:42:68 |    211357    |   223574
       15  | 49:41:00 | 04:06:15 |    223575    |   242039

Track 01
    Filename : /rip/FLAC/Adam Rafferty - Chameleon/01 - Adam Rafferty - Fernando's Banjo.flac
               /rip/LAME MP3/Adam Rafferty - Chameleon/01 - Adam Rafferty - Fernando's Banjo.mp3
    CRC32 hash (test run)  : BFE73B26
    CRC32 hash             : BFE73B26
    CRC32 hash (skip zero) : 93103975
    AccurateRip signature  : 0C3EE92C
        ->Track not present in AccurateRip database.
    Statistics
        Read error                           : 0
        Skipped (treated as error)           : 0
        Edge jitter error (maybe fixed)      : 0
        Atom jitter error (maybe fixed)      : 0
        Drift error (maybe fixed)            : 0
        Dropped bytes error (maybe fixed)    : 0
        Duplicated bytes error (maybe fixed) : 0
        Inconsistency in error sectors       : 0

Track 02
    Filename : /rip/FLAC/Adam Rafferty - Chameleon/02 - Adam Rafferty - Mas Que Nada.flac
               /rip/LAME MP3/Adam Rafferty - Chameleon/02 - Adam Rafferty - Mas Que Nada.mp3
    CRC32 hash (test run)  : 9D58052D
    CRC32 hash             : 9D58052D
    CRC32 hash (skip zero) : D4B21ED4
    AccurateRip signature  : 5247B2C1
        ->Track not present in AccurateRip database.
    Statistics
        Read error                           : 0
        Skipped (treated as error)           : 0
        Edge jitter error (maybe fixed)      : 0
        Atom jitter error (maybe fixed)      : 0
        Drift error (maybe fixed)            : 0
        Dropped bytes error (maybe fixed)    : 0
        Duplicated bytes error (maybe fixed) : 0
        Inconsistency in error sectors       : 0

Track 03
    Filename : /rip/FLAC/Adam Rafferty - Chameleon/03 - Adam Rafferty - Got To Get You Into My Life.flac
               /rip/LAME MP3/Adam Rafferty - Chameleon/03 - Adam Rafferty - Got To Get You Into My Life.mp3
    CRC32 hash (test run)  : 4FBC1AD5
    CRC32 hash             : 4FBC1AD5
    CRC32 hash (skip zero) : 4E960675
    AccurateRip signature  : 8BAEF95C
        ->Track not present in AccurateRip database.
    Statistics
        Read error                           : 0
        Skipped (treated as error)           : 0
        Edge jitter error (maybe fixed)      : 0
        Atom jitter error (maybe fixed)      : 0
        Drift error (maybe fixed)            : 0
        Dropped bytes error (maybe fixed)    : 0
        Duplicated bytes error (maybe fixed) : 0
        Inconsistency in error sectors       : 0

Track 04
    Filename : /rip/FLAC/Adam Rafferty - Chameleon/04 - Adam Rafferty - Eleanor Rigby.flac
               /rip/LAME MP3/Adam Rafferty - Chameleon/04 - Adam Rafferty - Eleanor Rigby.mp3
    CRC32 hash (test run)  : F0052506
    CRC32 hash             : F0052506
    CRC32 hash (skip zero) : 2620AE3B
    AccurateRip signature  : 30892B56
        ->Track not present in AccurateRip database.
    Statistics
        Read error                           : 0
        Skipped (treated as error)           : 0
        Edge jitter error (maybe fixed)      : 0
        Atom jitter error (maybe fixed)      : 0
        Drift error (maybe fixed)            : 0
        Dropped bytes error (maybe fixed)    : 0
        Duplicated bytes error (maybe fixed) : 0
        Inconsistency in error sectors       : 0

Track 05
    Filename : /rip/FLAC/Adam Rafferty - Chameleon/05 - Adam Rafferty - The Boogie Man.flac
               /rip/LAME MP3/Adam Rafferty - Chameleon/05 - Adam Rafferty - The Boogie Man.mp3
    CRC32 hash (test run)  : FECF1D26
    CRC32 hash             : FECF1D26
    CRC32 hash (skip zero) : 575AF557
    AccurateRip signature  : 59219858
        ->Track not present in AccurateRip database.
    Statistics
        Read error                           : 0
        Skipped (treated as error)           : 0
        Edge jitter error (maybe fixed)      : 0
        Atom jitter error (maybe fixed)      : 0
        Drift error (maybe fixed)            : 0
        Dropped bytes error (maybe fixed)    : 0
        Duplicated bytes error (maybe fixed) : 0
        Inconsistency in error sectors       : 0

Track 06
    Filename : /rip/FLAC/Adam Rafferty - Chameleon/06 - Adam Rafferty - Ciao Bella.flac
               /rip/LAME MP3/Adam Rafferty - Chameleon/06 - Adam Rafferty - Ciao Bella.mp3
    CRC32 hash (test run)  : 86472392
    CRC32 hash             : 86472392
    CRC32 hash (skip zero) : 97635F24
    AccurateRip signature  : 0266FDAF
        ->Track not present in AccurateRip database.
    Statistics
        Read error                           : 0
        Skipped (treated as error)           : 0
        Edge jitter error (maybe fixed)      : 0
        Atom jitter error (maybe fixed)      : 0
        Drift error (maybe fixed)            : 0
        Dropped bytes error (maybe fixed)    : 0
        Duplicated bytes error (maybe fixed) : 0
        Inconsistency in error sectors       : 0

Track 07
    Filename : /rip/FLAC/Adam Rafferty - Chameleon/07 - Adam Rafferty - Billy Jean.flac
               /rip/LAME MP3/Adam Rafferty - Chameleon/07 - Adam Rafferty - Billy Jean.mp3
    CRC32 hash (test run)  : AC5785A5
    CRC32 hash             : AC5785A5
    CRC32 hash (skip zero) : 0CA01BE0
    AccurateRip signature  : 1F4C0C0D
        ->Track not present in AccurateRip database.
    Statistics
        Read error                           : 0
        Skipped (treated as error)           : 0
        Edge jitter error (maybe fixed)      : 0
        Atom jitter error (maybe fixed)      : 0
        Drift error (maybe fixed)            : 0
        Dropped bytes error (maybe fixed)    : 0
        Duplicated bytes error (maybe fixed) : 0
        Inconsistency in error sectors       : 0

Track 08
    Filename : /rip/FLAC/Adam Rafferty - Chameleon/08 - Adam Rafferty - Sweet Georgia Brown.flac
               /rip/LAME MP3/Adam Rafferty - Chameleon/08 - Adam Rafferty - Sweet Georgia Brown.mp3
    CRC32 hash (test run)  : A40D6ADB
    CRC32 hash             : A40D6ADB
    CRC32 hash (skip zero) : 5BCEC291
    AccurateRip signature  : 67CD00CE
        ->Track not present in AccurateRip database.
    Statistics
        Read error                           : 0
        Skipped (treated as error)           : 0
        Edge jitter error (maybe fixed)      : 0
        Atom jitter error (maybe fixed)      : 0
        Drift error (maybe fixed)            : 0
        Dropped bytes error (maybe fixed)    : 0
        Duplicated bytes error (maybe fixed) : 0
        Inconsistency in error sectors       : 0

Track 09
    Filename : /rip/FLAC/Adam Rafferty - Chameleon/09 - Adam Rafferty - I Can't Make You Love Me.flac
               /rip/LAME MP3/Adam Rafferty - Chameleon/09 - Adam Rafferty - I Can't Make You Love Me.mp3
    CRC32 hash (test run)  : 6D1B25B6
    CRC32 hash             : 6D1B25B6
    CRC32 hash (skip zero) : 8637C30F
    AccurateRip signature  : 7F9151F1
        ->Track not present in AccurateRip database.
    Statistics
        Read error                           : 0
        Skipped (treated as error)           : 0
        Edge jitter error (maybe fixed)      : 0
        Atom jitter error (maybe fixed)      : 0
        Drift error (maybe fixed)            : 0
        Dropped bytes error (maybe fixed)    : 0
        Duplicated bytes error (maybe fixed) : 0
        Inconsistency in error sectors       : 0

Track 10
    Filename : /rip/FLAC/Adam Rafferty - Chameleon/10 - Adam Rafferty - Chameleon.flac
               /rip/LAME MP3/Adam Rafferty - Chameleon/10 - Adam Rafferty - Chameleon.mp3
    CRC32 hash (test run)  : 5A7F1BF0
    CRC32 hash             : 5A7F1BF0
    CRC32 hash (skip zero) : 64BB5424
    AccurateRip signature  : 10ED4EC5
        ->Track not present in AccurateRip database.
    Statistics
        Read error                           : 0
        Skipped (treated as error)           : 0
        Edge jitter error (maybe fixed)      : 0
        Atom jitter error (maybe fixed)      : 0
        Drift error (maybe fixed)            : 0
        Dropped bytes error (maybe fixed)    : 0
        Duplicated bytes error (maybe fixed) : 0
        Inconsistency in error sectors       : 0

Track 11
    Filename : /rip/FLAC/Adam Rafferty - Chameleon/11 - Adam Rafferty - Tinkerbell's Dream.flac
               /rip/LAME MP3/Adam Rafferty - Chameleon/11 - Adam Rafferty - Tinkerbell's Dream.mp3
    CRC32 hash (test run)  : F286F748
    CRC32 hash             : F286F748
    CRC32 hash (skip zero) : 75D55DFD
    AccurateRip signature  : 0261C3BC
        ->Track not present in AccurateRip database.
    Statistics
        Read error                           : 0
        Skipped (treated as error)           : 0
        Edge jitter error (maybe fixed)      : 0
        Atom jitter error (maybe fixed)      : 0
        Drift error (maybe fixed)            : 0
        Dropped bytes error (maybe fixed)    : 0
        Duplicated bytes error (maybe fixed) : 0
        Inconsistency in error sectors       : 0

Track 12
    Filename : /rip/FLAC/Adam Rafferty - Chameleon/12 - Adam Rafferty - Shelter Island.flac
               /rip/LAME MP3/Adam Rafferty - Chameleon/12 - Adam Rafferty - Shelter Island.mp3
    CRC32 hash (test run)  : 0644679C
    CRC32 hash             : 0644679C
    CRC32 hash (skip zero) : D75DF8EA
    AccurateRip signature  : 86305D92
        ->Track not present in AccurateRip database.
    Statistics
        Read error                           : 0
        Skipped (treated as error)           : 0
        Edge jitter error (maybe fixed)      : 0
        Atom jitter error (maybe fixed)      : 0
        Drift error (maybe fixed)            : 0
        Dropped bytes error (maybe fixed)    : 0
        Duplicated bytes error (maybe fixed) : 0
        Inconsistency in error sectors       : 0

Track 13
    Filename : /rip/FLAC/Adam Rafferty - Chameleon/13 - Adam Rafferty - Harlem.flac
               /rip/LAME MP3/Adam Rafferty - Chameleon/13 - Adam Rafferty - Harlem.mp3
    CRC32 hash (test run)  : FE7AF20F
    CRC32 hash             : FE7AF20F
    CRC32 hash (skip zero) : 48D7F21C
    AccurateRip signature  : E81341F1
        ->Track not present in AccurateRip database.
    Statistics
        Read error                           : 0
        Skipped (treated as error)           : 0
        Edge jitter error (maybe fixed)      : 0
        Atom jitter error (maybe fixed)      : 0
        Drift error (maybe fixed)            : 0
        Dropped bytes error (maybe fixed)    : 0
        Duplicated bytes error (maybe fixed) : 0
        Inconsistency in error sectors       : 0

Track 14
    Filename : /rip/FLAC/Adam Rafferty - Chameleon/14 - Adam Rafferty - Little Fingers.flac
               /rip/LAME MP3/Adam Rafferty - Chameleon/14 - Adam Rafferty - Little Fingers.mp3
    CRC32 hash (test run)  : 9FFCB665
    CRC32 hash             : 9FFCB665
    CRC32 hash (skip zero) : 9DC95077
    AccurateRip signature  : D67878A1
        ->Track not present in AccurateRip database.
    Statistics
        Read error                           : 0
        Skipped (treated as error)           : 0
        Edge jitter error (maybe fixed)      : 0
        Atom jitter error (maybe fixed)      : 0
        Drift error (maybe fixed)            : 0
        Dropped bytes error (maybe fixed)    : 0
        Duplicated bytes error (maybe fixed) : 0
        Inconsistency in error sectors       : 0

Track 15
    Filename : /rip/FLAC/Adam Rafferty - Chameleon/15 - Adam Rafferty - Someone To Watch Over Me.flac
               /rip/LAME MP3/Adam Rafferty - Chameleon/15 - Adam Rafferty - Someone To Watch Over Me.mp3
    CRC32 hash (test run)  : 3E464E09
    CRC32 hash             : 3E464E09
    CRC32 hash (skip zero) : AFFD0EF2
    AccurateRip signature  : 95FC9EF2
        ->Track not present in AccurateRip database.
    Statistics
        Read error                           : 0
        Skipped (treated as error)           : 0
        Edge jitter error (maybe fixed)      : 0
        Atom jitter error (maybe fixed)      : 0
        Drift error (maybe fixed)            : 0
        Dropped bytes error (maybe fixed)    : 0
        Duplicated bytes error (maybe fixed) : 0
        Inconsistency in error sectors       : 0

No errors occurred

End of status report
Содержание индексной карты (.CUE)
PERFORMER "Adam Rafferty"
TITLE "Chameleon"
REM GENRE "Jazz"
REM DATE 2009
FILE "CDImage.wav" WAVE
  TRACK 01 AUDIO
    TITLE "Fernando's Banjo"
    INDEX 01 00:00:00
  TRACK 02 AUDIO
    TITLE "Mas Que Nada"
    INDEX 01 02:36:12
  TRACK 03 AUDIO
    TITLE "Got To Get You Into My Life"
    INDEX 00 06:10:10
    INDEX 01 06:10:35
  TRACK 04 AUDIO
    TITLE "Eleanor Rigby"
    INDEX 00 09:03:15
    INDEX 01 09:03:40
  TRACK 05 AUDIO
    TITLE "The Boogie Man"
    INDEX 01 12:54:35
  TRACK 06 AUDIO
    TITLE "Ciao Bella"
    INDEX 01 17:05:45
  TRACK 07 AUDIO
    TITLE "Billy Jean"
    INDEX 01 21:45:70
  TRACK 08 AUDIO
    TITLE "Sweet Georgia Brown"
    INDEX 00 25:11:00
    INDEX 01 25:11:62
  TRACK 09 AUDIO
    TITLE "I Can't Make You Love Me"
    INDEX 00 28:07:30
    INDEX 01 28:07:45
  TRACK 10 AUDIO
    TITLE "Chameleon"
    INDEX 01 32:11:05
  TRACK 11 AUDIO
    TITLE "Tinkerbell's Dream"
    INDEX 00 35:54:65
    INDEX 01 35:55:20
  TRACK 12 AUDIO
    TITLE "Shelter Island"
    INDEX 01 40:32:40
  TRACK 13 AUDIO
    TITLE "Harlem"
    INDEX 01 42:41:17
  TRACK 14 AUDIO
    TITLE "Little Fingers"
    INDEX 01 46:58:07
  TRACK 15 AUDIO
    TITLE "Someone To Watch Over Me"
    INDEX 01 49:41:00
Лог проверки качества
Started at: вторник, 20. 04. 2010. - 16:52.56

15 files found

01 -===- C:\Downloads\Music\Джаз\Adam Rafferty - Chameleon\01 - Adam Rafferty - Fernando's Banjo.flac
  Extracted successfully
  Conclusion: This track looks like CDDA with probability 100%
  Tempfile successfully deleted.

02 -===- C:\Downloads\Music\Джаз\Adam Rafferty - Chameleon\02 - Adam Rafferty - Mas Que Nada.flac
  Extracted successfully
  Conclusion: This track looks like CDDA with probability 100%
  Tempfile successfully deleted.

03 -===- C:\Downloads\Music\Джаз\Adam Rafferty - Chameleon\03 - Adam Rafferty - Got To Get You Into My Life.flac
  Extracted successfully
  Conclusion: This track looks like CDDA with probability 99%
  Tempfile successfully deleted.

04 -===- C:\Downloads\Music\Джаз\Adam Rafferty - Chameleon\04 - Adam Rafferty - Eleanor Rigby.flac
  Extracted successfully
  Conclusion: This track looks like CDDA with probability 100%
  Tempfile successfully deleted.

05 -===- C:\Downloads\Music\Джаз\Adam Rafferty - Chameleon\05 - Adam Rafferty - The Boogie Man.flac
  Extracted successfully
  Conclusion: This track looks like CDDA with probability 99%
  Tempfile successfully deleted.

06 -===- C:\Downloads\Music\Джаз\Adam Rafferty - Chameleon\06 - Adam Rafferty - Ciao Bella.flac
  Extracted successfully
  Conclusion: This track looks like CDDA with probability 99%
  Tempfile successfully deleted.

07 -===- C:\Downloads\Music\Джаз\Adam Rafferty - Chameleon\07 - Adam Rafferty - Billy Jean.flac
  Extracted successfully
  Conclusion: This track looks like CDDA with probability 100%
  Tempfile successfully deleted.

08 -===- C:\Downloads\Music\Джаз\Adam Rafferty - Chameleon\08 - Adam Rafferty - Sweet Georgia Brown.flac
  Extracted successfully
  Conclusion: This track looks like CDDA with probability 100%
  Tempfile successfully deleted.

09 -===- C:\Downloads\Music\Джаз\Adam Rafferty - Chameleon\09 - Adam Rafferty - I Can't Make You Love Me.flac
  Extracted successfully
  Conclusion: This track looks like CDDA with probability 100%
  Tempfile successfully deleted.

10 -===- C:\Downloads\Music\Джаз\Adam Rafferty - Chameleon\10 - Adam Rafferty - Chameleon.flac
  Extracted successfully
  Conclusion: This track looks like CDDA with probability 100%
  Tempfile successfully deleted.

11 -===- C:\Downloads\Music\Джаз\Adam Rafferty - Chameleon\11 - Adam Rafferty - Tinkerbell's Dream.flac
  Extracted successfully
  Conclusion: This track looks like CDDA with probability 100%
  Tempfile successfully deleted.

12 -===- C:\Downloads\Music\Джаз\Adam Rafferty - Chameleon\12 - Adam Rafferty - Shelter Island.flac
  Extracted successfully
  Conclusion: This track looks like CDDA with probability 99%
  Tempfile successfully deleted.

13 -===- C:\Downloads\Music\Джаз\Adam Rafferty - Chameleon\13 - Adam Rafferty - Harlem.flac
  Extracted successfully
  Conclusion: This track looks like CDDA with probability 99%
  Tempfile successfully deleted.

14 -===- C:\Downloads\Music\Джаз\Adam Rafferty - Chameleon\14 - Adam Rafferty - Little Fingers.flac
  Extracted successfully
  Conclusion: This track looks like CDDA with probability 100%
  Tempfile successfully deleted.

15 -===- C:\Downloads\Music\Джаз\Adam Rafferty - Chameleon\15 - Adam Rafferty - Someone To Watch Over Me.flac
  Extracted successfully
  Conclusion: This track looks like CDDA with probability 100%
  Tempfile successfully deleted.

Finished at: вторник, 20. 04. 2010. - 17:04.20 (operation time: 0:11.23)
Приватный:
Нет (DHT включён)
Размер:
267.70 Мб (280,702,957 байт) » файлов: 19
Участники:
8 раздают, 0 качают (8 участников всего)
Внешние участники:
2 раздают, 1 качают (3 участников всего) [ Обновить ]
14:46
309
Нет комментариев. Ваш будет первым!