Вы используете незарегистрированную версию компонента "Вкладки"!

Поиск

2006 VA - ACT_ Magic Moments, vol.3 {ACT Music ACT9450-2} [CD]

2006 VA - ACT_ Magic Moments, vol.3 {ACT Music ACT9450-2} [CD]
Стили:
Издатель (лейбл):
Номер по каталогу:
ACT9450-2
Носитель:
CD
Тип рипа:
image
Аудиокодек:
FLAC (*.flac)
Битрейт аудио:
lossless
Время звучания:
01:06:05
Наличие сканов:
буклет pdf
Релизёр (источник):
M0p94ok
Лог создания рипа
Exact Audio Copy V0.99 prebeta 4 from 23. January 2008

EAC extraction logfile from 6. October 2009, 21:22

Various / World Jazz Anthology 8 Magic Moments 03

Used drive : YAMAHA CRW-F1E Adapter: 4 ID: 0

Read mode : Secure
Utilize accurate stream : Yes
Defeat audio cache : Yes
Make use of C2 pointers : No

Read offset correction : 733
Overread into Lead-In and Lead-Out : No
Fill up missing offset samples with silence : Yes
Delete leading and trailing silent blocks : No
Null samples used in CRC calculations : Yes
Used interface : Native Win32 interface for Win NT & 2000

Used output format : Internal WAV Routines
Sample format : 44.100 Hz; 16 Bit; Stereo

TOC of the extracted CD

Track | Start | Length | Start sector | End sector
---------------------------------------------------------
1 | 0:00.00 | 2:01.39 | 0 | 9113
2 | 2:01.39 | 4:01.11 | 9114 | 27199
3 | 6:02.50 | 4:24.02 | 27200 | 47001
4 | 10:26.52 | 4:20.17 | 47002 | 66518
5 | 14:46.69 | 3:13.57 | 66519 | 81050
6 | 18:00.51 | 4:12.46 | 81051 | 99996
7 | 22:13.22 | 5:05.47 | 99997 | 122918
8 | 27:18.69 | 4:02.13 | 122919 | 141081
9 | 31:21.07 | 4:54.23 | 141082 | 163154
10 | 36:15.30 | 2:41.25 | 163155 | 175254
11 | 38:56.55 | 4:52.33 | 175255 | 197187
12 | 43:49.13 | 3:50.07 | 197188 | 214444
13 | 47:39.20 | 3:27.29 | 214445 | 229998
14 | 51:06.49 | 4:02.70 | 229999 | 248218
15 | 55:09.44 | 4:28.68 | 248219 | 268386
16 | 59:38.37 | 6:26.74 | 268387 | 297410

Range status and errors

Selected range

Filename D:\!mTorrent razdachi\ACT - Magic Moments\ACT - MM - vol.3\Various - World Jazz Anthology 8 Magic Moments 03.wav

Peak level 99.5 %
Range quality 100.0 %
Test CRC 01DBD31C
Copy CRC 01DBD31C
Copy OK

No errors occurred

AccurateRip summary

Track 1 accurately ripped (confidence 16) [D4FFCFD8]
Track 2 accurately ripped (confidence 16) [B3B5A9E7]
Track 3 accurately ripped (confidence 16) [9B2D8C76]
Track 4 accurately ripped (confidence 16) [CB7E6DCF]
Track 5 accurately ripped (confidence 16) [339D7655]
Track 6 accurately ripped (confidence 16) [A12ADC5F]
Track 7 accurately ripped (confidence 16) [4BA61E4D]
Track 8 accurately ripped (confidence 15) [3797CCF7]
Track 9 accurately ripped (confidence 16) [FE22C399]
Track 10 accurately ripped (confidence 15) [4940F337]
Track 11 accurately ripped (confidence 16) [6E37A608]
Track 12 accurately ripped (confidence 15) [428275C5]
Track 13 accurately ripped (confidence 16) [7C30849A]
Track 14 accurately ripped (confidence 16) [539B0EE4]
Track 15 accurately ripped (confidence 16) [4A7338B6]
Track 16 accurately ripped (confidence 16) [0BE2700F]

All tracks accurately ripped

End of status report
Any questions - support@pro-jazz.com. Есть вопросы - support@pro-jazz.com
12:14
177
Нет комментариев. Ваш будет первым!