Поиск

2006 Lionel Hampton - 1951-1953 {The Chronological Classics 1429} [CD]

2006 Lionel Hampton - 1951-1953 {The Chronological Classics 1429} [CD]
Стили:
Издатель (лейбл):
Номер по каталогу:
1429
Доп. инфо:

Носитель: CD
Страна-производитель диска (релиза): Франция
Год издания: 2006
Страна исполнителя (группы): США
Аудиокодек: FLAC (*.flac)
Тип рипа: tracks+.cue
Битрейт аудио: lossless
Продолжительность: 65:30
Источник (релизер): sushi
Наличие сканов в содержимом раздачи: да

Лог создания рипа
Exact Audio Copy V1.3 from 2. September 2016
EAC extraction logfile from 2. August 2017, 13:09
Lionel Hampton / 1951-1953 (The Chronological Claccis 1429)
Used drive  : HL-DT-STDVD+-RW GS40N   Adapter: 1  ID: 0
Read mode               : Secure
Utilize accurate stream : Yes
Defeat audio cache      : Yes
Make use of C2 pointers : No
Read offset correction                      : 6
Overread into Lead-In and Lead-Out          : No
Fill up missing offset samples with silence : Yes
Delete leading and trailing silent blocks   : No
Null samples used in CRC calculations       : Yes
Used interface                              : Native Win32 interface for Win NT & 2000
Gap handling                                : Appended to previous track
Used output format              : User Defined Encoder
Selected bitrate                : 1024 kBit/s
Quality                         : High
Add ID3 tag                     : No
Command line compressor         : C:\Program Files (x86)\Exact Audio Copy\FLAC\FLAC.EXE
Additional command line options : -8 -V -T "ARTIST=%artist%" -T "TITLE=%title%" -T "ALBUM=%albumtitle%" -T "DATE=%year%" -T "TRACKNUMBER=%tracknr%" -T "GENRE=%genre%" -T "COMMENT=%comment%" -T "BAND=%albuminterpret%" -T "ALBUMARTIST=%albuminterpret%" -T "COMPOSER=%composer%" %haslyrics%--tag-from-file=LYRICS="%lyricsfile%"%haslyrics% -T "DISCNUMBER=%cdnumber%" -T "TOTALDISCS=%totalcds%" -T "TOTALTRACKS=%numtracks%" %hascover%--picture="%coverfile%"%hascover% %source% -o %dest%
TOC of the extracted CD
     Track |   Start  |  Length  | Start sector | End sector
    ---------------------------------------------------------
        1  |  0:00.00 |  2:58.62 |         0    |    13411
        2  |  2:58.62 |  2:31.61 |     13412    |    24797
        3  |  5:30.48 |  2:54.28 |     24798    |    37875
        4  |  8:25.01 |  3:30.54 |     37876    |    53679
        5  | 11:55.55 |  2:48.40 |     53680    |    66319
        6  | 14:44.20 |  8:01.14 |     66320    |   102408
        7  | 22:45.34 |  7:22.16 |    102409    |   135574
        8  | 30:07.50 |  7:37.42 |    135575    |   169891
        9  | 37:45.17 | 10:42.54 |    169892    |   218095
       10  | 48:27.71 |  6:14.04 |    218096    |   246149
       11  | 54:42.00 | 10:47.26 |    246150    |   294700
Track  1
     Filename C:\1951-1953 (The Chronological Classics 1429)\01 Gabby's Gabbin.wav
     Pre-gap length  0:00:02.00
     Peak level 99.6 %
     Extraction speed 1.3 X
     Track quality 100.0 %
     Test CRC 4BAB82EF
     Copy CRC 4BAB82EF
     Accurately ripped (confidence 1)  [C55421C7]  (AR v1)
     Copy OK
Track  2
     Filename C:\1951-1953 (The Chronological Classics 1429)\02 Don't Flee The Scene Salty.wav
     Pre-gap length  0:00:02.13
     Peak level 98.0 %
     Extraction speed 1.3 X
     Track quality 100.0 %
     Test CRC 04FC92EB
     Copy CRC 04FC92EB
     Accurately ripped (confidence 1)  [78EDEC87]  (AR v1)
     Copy OK
Track  3
     Filename C:\1951-1953 (The Chronological Classics 1429)\03 Kingfish.wav
     Pre-gap length  0:00:02.13
     Peak level 98.2 %
     Extraction speed 1.5 X
     Track quality 100.0 %
     Test CRC 598FD27B
     Copy CRC 598FD27B
     Accurately ripped (confidence 1)  [BCCDEE7A]  (AR v1)
     Copy OK
Track  4
     Filename C:\1951-1953 (The Chronological Classics 1429)\04 Oh, Lady Be Good !.wav
     Pre-gap length  0:00:02.13
     Peak level 100.0 %
     Extraction speed 1.6 X
     Track quality 100.0 %
     Test CRC 7974D7F6
     Copy CRC 7974D7F6
     Accurately ripped (confidence 1)  [3759703A]  (AR v1)
     Copy OK
Track  5
     Filename C:\1951-1953 (The Chronological Classics 1429)\05 Oh Rock.wav
     Pre-gap length  0:00:02.13
     Peak level 98.8 %
     Extraction speed 1.6 X
     Track quality 100.0 %
     Test CRC 7C625401
     Copy CRC 7C625401
     Accurately ripped (confidence 1)  [6A4B5C33]  (AR v1)
     Copy OK
Track  6
     Filename C:\1951-1953 (The Chronological Classics 1429)\06 Always.wav
     Pre-gap length  0:00:02.13
     Peak level 97.4 %
     Extraction speed 2.1 X
     Track quality 100.0 %
     Test CRC E5B9C220
     Copy CRC E5B9C220
     Accurately ripped (confidence 1)  [67F4719C]  (AR v1)
     Copy OK
Track  7
     Filename C:\1951-1953 (The Chronological Classics 1429)\07 S'Wonderful.wav
     Pre-gap length  0:00:02.13
     Peak level 100.0 %
     Extraction speed 2.1 X
     Track quality 99.9 %
     Test CRC 6685687C
     Copy CRC 6685687C
     Accurately ripped (confidence 1)  [581EC5B8]  (AR v1)
     Copy OK
Track  8
     Filename C:\1951-1953 (The Chronological Classics 1429)\08 Air Mail Special.wav
     Pre-gap length  0:00:02.13
     Peak level 97.5 %
     Extraction speed 2.5 X
     Track quality 100.0 %
     Test CRC 2026D4DD
     Copy CRC 2026D4DD
     Accurately ripped (confidence 1)  [05CF4BD4]  (AR v1)
     Copy OK
Track  9
     Filename C:\1951-1953 (The Chronological Classics 1429)\09 The Nearness Of You.wav
     Pre-gap length  0:00:02.13
     Peak level 99.3 %
     Extraction speed 2.6 X
     Track quality 99.9 %
     Test CRC 8FF5E628
     Copy CRC 8FF5E628
     Accurately ripped (confidence 1)  [99F3EDC6]  (AR v1)
     Copy OK
Track 10
     Filename C:\1951-1953 (The Chronological Classics 1429)\10 Soft Winds.wav
     Pre-gap length  0:00:02.13
     Peak level 100.0 %
     Extraction speed 2.8 X
     Track quality 100.0 %
     Test CRC FBA778FE
     Copy CRC FBA778FE
     Accurately ripped (confidence 1)  [D00834D6]  (AR v1)
     Copy OK
Track 11
     Filename C:\1951-1953 (The Chronological Classics 1429)\11 Stompin' Art The Savoy.wav
     Pre-gap length  0:00:02.13
     Peak level 98.1 %
     Extraction speed 3.1 X
     Track quality 100.0 %
     Test CRC 685C95DE
     Copy CRC 685C95DE
     Accurately ripped (confidence 1)  [7540936C]  (AR v1)
     Copy OK
All tracks accurately ripped
No errors occurred
End of status report
==== Log checksum 06A7603C62BB8EBF609FB1B4352825F2E783E0A8C918FA0C2616AA93AB0618FA ====
Содержание индексной карты (.CUE)
REM GENRE Jazz
REM DATE 2006
REM DISCID 9D0F590B
REM COMMENT "ExactAudioCopy v1.3"
PERFORMER "Lionel Hampton"
TITLE "1951-1953"
FILE "01 - Gabby's Gabbin'.wav" WAVE
  TRACK 01 AUDIO
    TITLE "Gabby's Gabbin'"
    PERFORMER "Lionel Hampton"
    INDEX 01 00:00:00
  TRACK 02 AUDIO
    TITLE "Don't Flee the Scene Salty"
    PERFORMER "Lionel Hampton"
    INDEX 00 02:56:52
FILE "02 - Don't Flee the Scene Salty.wav" WAVE
    INDEX 01 00:00:00
  TRACK 03 AUDIO
    TITLE "Kingfish"
    PERFORMER "Lionel Hampton"
    INDEX 00 02:29:51
FILE "03 - Kingfish.wav" WAVE
    INDEX 01 00:00:00
  TRACK 04 AUDIO
    TITLE "Oh, Lady Be Good!"
    PERFORMER "Lionel Hampton"
    INDEX 00 02:52:18
FILE "04 - Oh, Lady Be Good!.wav" WAVE
    INDEX 01 00:00:00
  TRACK 05 AUDIO
    TITLE "Oh Rock"
    PERFORMER "Lionel Hampton"
    INDEX 00 03:28:44
FILE "05 - Oh Rock.wav" WAVE
    INDEX 01 00:00:00
  TRACK 06 AUDIO
    TITLE "Always"
    PERFORMER "Lionel Hampton"
    INDEX 00 02:46:30
FILE "06 - Always.wav" WAVE
    INDEX 01 00:00:00
  TRACK 07 AUDIO
    TITLE "S'Wonderful"
    PERFORMER "Lionel Hampton"
    INDEX 00 07:59:04
FILE "07 - S'Wonderful.wav" WAVE
    INDEX 01 00:00:00
  TRACK 08 AUDIO
    TITLE "Air Mail Special"
    PERFORMER "Lionel Hampton"
    INDEX 00 07:20:06
FILE "08 - Air Mail Special.wav" WAVE
    INDEX 01 00:00:00
  TRACK 09 AUDIO
    TITLE "The Nearness of You"
    PERFORMER "Lionel Hampton"
    INDEX 00 07:35:32
FILE "09 - The Nearness of You.wav" WAVE
    INDEX 01 00:00:00
  TRACK 10 AUDIO
    TITLE "Soft Winds"
    PERFORMER "Lionel Hampton"
    INDEX 00 10:40:44
FILE "10 - Soft Winds.wav" WAVE
    INDEX 01 00:00:00
  TRACK 11 AUDIO
    TITLE "Stompin' at the Savoy"
    PERFORMER "Lionel Hampton"
    INDEX 00 06:11:69
FILE "11 - Stompin' at the Savoy.wav" WAVE
    INDEX 01 00:00:00
No seeders - write personal message to M0p94ok. Any questions - support@pro-jazz.com.
Нет сидеров - пишите в личку M0p94ok. Есть вопросы - support@pro-jazz.com
22:21
199
Нет комментариев. Ваш будет первым!