Поиск

2006 David Benoit - Full Circle

2006 David Benoit - Full Circle
Треклист:
Жанр: Contemporary Jazz, Piano Jazz, Jazz Instrument
Release Date: Jun 27, 2006
Label: Peak Records
Формат: FLAC (tracks+.cue)
Битрейт аудио: lossless
Источник: what.cd
Продолжительность: 43:33
Трэклист:
01. David Benoit - Cafe Rio (4:20)
02. David Benoit - First Day Of School (4:08)
03. David Benoit - Water To Drink (Agua De Beber) (3:58)
04. David Benoit - Beat Street (4:16)
05. David Benoit - Six PM (4:41)
06. David Benoit - Chasing The Tides (4:53)
07. David Benoit - Neat With A Twist (5:17)
08. David Benoit - Katrina's Little Bear (3:48)
09. David Benoit - Yusuke The Ghost (3:36)
10. David Benoit - Monster In The Attic (4:36)
Альбом записывался вместе с клавишником Jeff Lorber, гитаристом Paul Brown, Luis Conte (перкуссия) и басистом Nathan East
 
Лог EAC
Exact Audio Copy V0.99 prebeta 5 from 4. May 2009
EAC extraction logfile from 22. September 2010, 10:16
David Benoit / Full Circle
Used drive  : PLEXTOR DVDR   PX-760A   Adapter: 1  ID: 0
Read mode               : Secure
Utilize accurate stream : Yes
Defeat audio cache      : Yes
Make use of C2 pointers : No
Read offset correction                      : 30
Overread into Lead-In and Lead-Out          : Yes
Fill up missing offset samples with silence : Yes
Delete leading and trailing silent blocks   : No
Null samples used in CRC calculations       : Yes
Used interface                              : Native Win32 interface for Win NT & 2000
Gap handling                                : Appended to previous track
Used output format              : User Defined Encoder
Selected bitrate                : 32 kBit/s
Quality                         : Low
Add ID3 tag                     : No
Command line compressor         : C:\Program Files\FLAC\flac.exe
Additional command line options : -V -8 -T "artist=%a" -T "title=%t" -T "album=%g" -T "date=%y" -T "tracknumber=%n" -T "genre=%m" %s
TOC of the extracted CD
     Track |   Start  |  Length  | Start sector | End sector
    ---------------------------------------------------------
        1  |  0:00.00 |  4:20.31 |         0    |    19530
        2  |  4:20.31 |  4:08.28 |     19531    |    38158
        3  |  8:28.59 |  3:57.40 |     38159    |    55973
        4  | 12:26.24 |  4:15.73 |     55974    |    75171
        5  | 16:42.22 |  4:40.58 |     75172    |    96229
        6  | 21:23.05 |  4:53.07 |     96230    |   118211
        7  | 26:16.12 |  5:16.74 |    118212    |   141985
        8  | 31:33.11 |  3:47.48 |    141986    |   159058
        9  | 35:20.59 |  3:36.28 |    159059    |   175286
       10  | 38:57.12 |  4:35.71 |    175287    |   195982
Track  1
     Filename Z:\Rips\David Benoit - 2005 - Full Circle\01 - Cafe Rio.wav
     Pre-gap length  0:00:02.00
     Peak level 98.8 %
     Track quality 100.0 %
     Test CRC C342A5EC
     Copy CRC C342A5EC
     Accurately ripped (confidence 18)  [884F4101]
     Copy OK
Track  2
     Filename Z:\Rips\David Benoit - 2005 - Full Circle\02 - First Day Of School.wav
     Pre-gap length  0:00:01.67
     Peak level 98.8 %
     Track quality 99.9 %
     Test CRC 69D318AD
     Copy CRC 69D318AD
     Accurately ripped (confidence 16)  [05504D25]
     Copy OK
Track  3
     Filename Z:\Rips\David Benoit - 2005 - Full Circle\03 - Water To Drink (Agua De Beber).wav
     Peak level 98.8 %
     Track quality 100.0 %
     Test CRC 507C3AA1
     Copy CRC 507C3AA1
     Accurately ripped (confidence 18)  [E87448DF]
     Copy OK
Track  4
     Filename Z:\Rips\David Benoit - 2005 - Full Circle\04 - Beat Street.wav
     Pre-gap length  0:00:00.11
     Peak level 98.8 %
     Track quality 100.0 %
     Test CRC E0406B89
     Copy CRC E0406B89
     Accurately ripped (confidence 17)  [E19F8745]
     Copy OK
Track  5
     Filename Z:\Rips\David Benoit - 2005 - Full Circle\05 - Six PM.wav
     Pre-gap length  0:00:01.27
     Peak level 98.8 %
     Track quality 100.0 %
     Test CRC E454E678
     Copy CRC E454E678
     Accurately ripped (confidence 18)  [41EB933B]
     Copy OK
Track  6
     Filename Z:\Rips\David Benoit - 2005 - Full Circle\06 - Chasing The Tides.wav
     Pre-gap length  0:00:01.21
     Peak level 98.8 %
     Track quality 100.0 %
     Test CRC 2B4DEAC7
     Copy CRC 2B4DEAC7
     Accurately ripped (confidence 18)  [FA2C750B]
     Copy OK
Track  7
     Filename Z:\Rips\David Benoit - 2005 - Full Circle\07 - Neat With A Twist.wav
     Pre-gap length  0:00:00.61
     Peak level 98.8 %
     Track quality 100.0 %
     Test CRC 8EDAB6F6
     Copy CRC 8EDAB6F6
     Accurately ripped (confidence 17)  [FA724626]
     Copy OK
Track  8
     Filename Z:\Rips\David Benoit - 2005 - Full Circle\08 - Katrina's Little Bear.wav
     Pre-gap length  0:00:00.57
     Peak level 98.8 %
     Track quality 100.0 %
     Test CRC 4B04C2B3
     Copy CRC 4B04C2B3
     Accurately ripped (confidence 18)  [26DE076D]
     Copy OK
Track  9
     Filename Z:\Rips\David Benoit - 2005 - Full Circle\09 - Yusuke The Ghost.wav
     Pre-gap length  0:00:00.11
     Peak level 100.0 %
     Track quality 100.0 %
     Test CRC 4751CF35
     Copy CRC 4751CF35
     Accurately ripped (confidence 17)  [D739C633]
     Copy OK
Track 10
     Filename Z:\Rips\David Benoit - 2005 - Full Circle\10 - Monster In The Attic.wav
     Peak level 98.8 %
     Track quality 99.9 %
     Test CRC EB99CA76
     Copy CRC EB99CA76
     Accurately ripped (confidence 18)  [C3D3F151]
     Copy OK
All tracks accurately ripped
No errors occurred
End of status report
 
 
CUE
REM GENRE Fusion
REM DATE 2005
REM DISCID 7E0A350A
REM COMMENT "ExactAudioCopy v0.99pb5"
PERFORMER "David Benoit"
TITLE "Full Circle"
FILE "01 - Cafe Rio.wav" WAVE
  TRACK 01 AUDIO
    TITLE "Cafe Rio"
    PERFORMER "David Benoit"
    ISRC USC4R0613870
    INDEX 01 00:00:00
  TRACK 02 AUDIO
    TITLE "First Day Of School"
    PERFORMER "David Benoit"
    ISRC USC4R0613871
    INDEX 00 04:18:39
FILE "02 - First Day Of School.wav" WAVE
    INDEX 01 00:00:00
FILE "03 - Water To Drink (Agua De Beber).wav" WAVE
  TRACK 03 AUDIO
    TITLE "Water To Drink (Agua De Beber)"
    PERFORMER "David Benoit"
    ISRC USC4R0613872
    INDEX 01 00:00:00
  TRACK 04 AUDIO
    TITLE "Beat Street"
    PERFORMER "David Benoit"
    ISRC USC4R0613873
    INDEX 00 03:57:29
FILE "04 - Beat Street.wav" WAVE
    INDEX 01 00:00:00
  TRACK 05 AUDIO
    TITLE "Six PM"
    PERFORMER "David Benoit"
    ISRC USC4R0613874
    INDEX 00 04:14:46
FILE "05 - Six PM.wav" WAVE
    INDEX 01 00:00:00
  TRACK 06 AUDIO
    TITLE "Chasing The Tides"
    PERFORMER "David Benoit"
    ISRC USC4R0613875
    INDEX 00 04:39:37
FILE "06 - Chasing The Tides.wav" WAVE
    INDEX 01 00:00:00
  TRACK 07 AUDIO
    TITLE "Neat With A Twist"
    PERFORMER "David Benoit"
    ISRC USC4R0613876
    INDEX 00 04:52:21
FILE "07 - Neat With A Twist.wav" WAVE
    INDEX 01 00:00:00
  TRACK 08 AUDIO
    TITLE "Katrina's Little Bear"
    PERFORMER "David Benoit"
    ISRC USC4R0613877
    INDEX 00 05:16:17
FILE "08 - Katrina's Little Bear.wav" WAVE
    INDEX 01 00:00:00
  TRACK 09 AUDIO
    TITLE "Yusuke The Ghost"
    PERFORMER "David Benoit"
    ISRC USC4R0613878
    INDEX 00 03:47:37
FILE "09 - Yusuke The Ghost.wav" WAVE
    INDEX 01 00:00:00
FILE "10 - Monster In The Attic.wav" WAVE
  TRACK 10 AUDIO
    TITLE "Monster In The Attic"
    PERFORMER "David Benoit"
    ISRC USC4R0613879
    INDEX 01 00:00:00
Приватный:
Нет (DHT включён)
Размер:
287.31 Мб (301,268,158 байт) » файлов: 14
Участники:
0 раздают, 0 качают (0 участников всего)
Внешние участники:
--- [ Обновить ]
Никого нет на раздаче - пишите личное сообщение M0p94ok
No seeders - write personal message to M0p94ok
10:22
27
Нет комментариев. Ваш будет первым!