Поиск

2006 Bireli Lagrene & WDR Big Band - Djangology

2006 Bireli Lagrene & WDR Big Band - Djangology
Страна-производитель диска (релиза):
France
Дата записи диска:
15 сентября 2005
Дата издания диска:
2006
Номер по каталогу:
FDM 366962
Носитель:
CD
Битрейт аудио:
lossless
Аудиокодек:
FLAC (*.flac)
Тип рипа:
tracks
Время звучания:
01:09:39
Наличие сканов:
  • да
Релизёр (источник):
m@rtin
Треклист:
01. Place du tertre 9:16
02. Good Life 5:07
03. Djangology 6:00
04. Impromptu 8:27
05. The Shadow of Your Smile 6:12
06. Blues en Mineur 8:59
07. Anouman 5:37
08. Flêche d'or 6:48
09. Caravan 6:20
10. All of Me 6:53
Состав:
  • Michael Abene Arranger, Conductor
  • Rob Bruynen Trumpet
  • Mattis Cederberg Trombone (Bass)
  • Frank Chastenier Piano
  • Hans Dekker Drums
  • John Goldsby Bass
  • Andy Haderer Trumpet
  • Dave Horler Arranger, Trombone
  • Frederik Köster Trumpet
  • Biréli Lagrène Guitar
  • Bernt Laukamp Trombone
  • John Marshall Trumpet
  • Jens Neufang Sax (Baritone)
  • Reinhold Nickel Engineer
  • Ludwig Nuss Trombone
  • Klaus Osterloh Trumpet
  • Olivier Peters Sax (Tenor)
  • Lucas Schmid Artistic Director, Liner Notes, Producer
  • Karolina Strassmayer Sax (Alto)
  • Heiner Wiberny Sax (Alto)
  • James Wood Arranger
Лог создания рипа
EAC extraction logfile from 11. January 2007, 20:50 for CD
Bireli Lagrene & WDR big band / Djangology
Used drive : SONY DVD RW DW-U14A Adapter: 1 ID: 0
Read mode : Secure with NO C2, accurate stream, disable cache
Read offset correction : 120
Overread into Lead-In and Lead-Out : No
Used output format : Internal WAV Routines
44.100 Hz; 16 Bit; Stereo
Other options :
Fill up missing offset samples with silence : Yes
Delete leading and trailing silent blocks : No
Installed external ASPI interface
Track 1
Filename D:\Download en cours\01 - Place du tertre.wav
Pre-gap length 0:00:02.00
Peak level 89.1 %
Track quality 99.9 %
Test CRC 2940E595
Copy CRC 2940E595
Copy OK
Track 2
Filename D:\Download en cours\02 - Good life.wav
Peak level 89.1 %
Track quality 100.0 %
Test CRC E7ECBB51
Copy CRC E7ECBB51
Copy OK
Track 3
Filename D:\Download en cours\03 - Djangology.wav
Pre-gap length 0:00:00.09
Peak level 89.1 %
Track quality 100.0 %
Test CRC A18D9275
Copy CRC A18D9275
Copy OK
Track 4
Filename D:\Download en cours\04 - Improptu.wav
Pre-gap length 0:00:00.20
Peak level 89.1 %
Track quality 99.9 %
Test CRC 2014C92E
Copy CRC 2014C92E
Copy OK
Track 5
Filename D:\Download en cours\05 - The shadow of your smile.wav
Peak level 89.1 %
Track quality 100.0 %
Test CRC 37BDBEA7
Copy CRC 37BDBEA7
Copy OK
Track 6
Filename D:\Download en cours\06 - Blues en mineur.wav
Peak level 89.1 %
Track quality 100.0 %
Test CRC 4F6FF57F
Copy CRC 4F6FF57F
Copy OK
Track 7
Filename D:\Download en cours\07 - Anouman.wav
Peak level 89.1 %
Track quality 100.0 %
Test CRC 044EBBE6
Copy CRC 044EBBE6
Copy OK
Track 8
Filename D:\Download en cours\08 - Fleche d'or.wav
Peak level 89.1 %
Track quality 100.0 %
Test CRC C076BA7B
Copy CRC C076BA7B
Copy OK
Track 9
Filename D:\Download en cours\09 - Caravan.wav
Peak level 89.1 %
Track quality 100.0 %
Test CRC 9583B024
Copy CRC 9583B024
Copy OK
Track 10
Filename D:\Download en cours\10 - All of me.wav
Peak level 89.1 %
Track quality 100.0 %
Test CRC 4AE86A08
Copy CRC 4AE86A08
Copy OK
No errors occured
End of status report
Приватный:
Нет (DHT включён)
Размер:
468.82 Мб (491,595,961 байт) » файлов: 17
Участники:
0 раздают, 0 качают (0 участников всего)
Внешние участники:
3 раздают, 1 качают (4 участников всего) [ Обновить ]
01:42
89
RSS
Нет комментариев. Ваш будет первым!